[ Сегодня идет свободное скачивание без начисления Download ]


Статистика раздачи
Скачал: [ 6 ]
 
   
 
 
 
 
Пятое измерение / Push / 2009 [HEVC, HDR, 4K / Blu-Ray Remux] (2160p) Год выпуска: 2009
Жанр: Фантастика, боевик, триллер
Выпущено: США, Канада, Icon Productions, Infinity Features, Summit Entertainment
Режиссер: Пол МакГиган
Продолжительность: 01:51:20
Перевод: Дублированный
Субтитры: Русские, английские, украинские
возраст 16+
В ролях: Колин Форд, Джоэл Гретш, Джимон Хонсу, Дакота Фэннинг, Роберт Тсонос, Брэндон Перлман, Камилла Белль, Нил Джексон, Крис Эванс, Кай Чунг Люн
О фильме: Ник, американский эмигрант, обладает способностью к телекинезу. Он скрывается в Гонконге от могущественной организации, которая хочет эксплуатировать его дар в своих целях. Вскоре молодой человек встречает свою бывшую возлюбленную и знакомится с девочкой Кэсси, способной предсказывать будущее. Она видит, что только вместе они смогут выжить и нарушить планы зловещей корпорации.
ПЯТОЕ ИЗМЕРЕНИЕ Трейлер
Техданные
Качество: Blu-Ray Remux (2160p)
Видео: HEVC, 49.7 Мбит/с, 3840x2160, 23.976 Кадр/с
Аудио: Русский (DTS-HD MA, 8 ch, 5788 Кбит/с), (AC3, 6 ch, 640 Кбит/с), английский (TrueHD, 8 ch, 5399 Кбит/с), (AC3, 6 ch, 448 Кбит/с), (AC3, 2 ch, 192 Кбит/с)
Релиз
Имя файла: Push.2009.UHD.BDRemux.2160p.HEVC.HDR.IVA(RUS.ENG).ExKinoRay.mkv
Размер файла: 48.5 GB
Общий битрейт: 62.3 Mb/s
Видео: HEVC, 3840x2160 (16:9), 23.976 fps, 49.7 Mb/s (0.250 bit/pixel)
Аудио #1: |RUS| DTS MA / Core, 48.0 kHz, 8 / 6 ch, 5 788 kb/s / 1 509 kb/s, VBR / CBR | Дублированный |
Аудио #2: |RUS| AC-3, 48.0 kHz, 6 ch, 640 kb/s, CBR | Дублированный |
Аудио #3: |ENG| TrueHD TrueHD+Atmos / TrueHD, / 48.0 kHz, Object Based / 8 ch, 5 399 kb/s, VBR | Original |
Аудио #4: |ENG| AC-3, 48.0 kHz, 6 ch, 448 kb/s, CBR | Original |
Аудио #5: |ENG| AC-3, 48.0 kHz, 2 ch, 192 kb/s, CBR | Commentary by Director |
Субтитры: Russian (Forced, Full), Ukrainian (Full), English (Full, commentary)

MediaInfo:

Общее
Уникальный идентификатор : 94068721382921768943578799539789871148 (0x46C4FA0B3FF5524A6063E58F87B1B82C)
Полное имя : Push.2009.UHD.BDRemux.2160p.HEVC.HDR.IVA(RUS.ENG).ExKinoRay.mkv
Формат : Matroska
Версия формата : Version 4 / Version 2
Размер файла : 48,5 Гбайт
Продолжительность : 1 ч. 51 м.
Режим общего битрейта : Переменный
Общий поток : 62,3 Мбит/сек
Название фильма : Пятое измерение / Push ( 2009 ) | BDRemux | HDR, 4K | IVA(RUS.ENG) | ExKinoRay
Дата кодирования : UTC 2018-04-11 12:49:29
Программа кодирования : mkvmerge v22.0.0 ('At The End Of The World') 64-bit
Библиотека кодирования : libebml v1.3.5 + libmatroska v1.4.8
Обложка : Yes
Видео
Идентификатор : 1
Формат : HEVC
Формат/Информация : High Efficiency Video Coding
Коммерческое название : HDR10
Профиль формата : Main 10@L5.1@High
Идентификатор кодека : V_MPEGH/ISO/HEVC
Продолжительность : 1 ч. 51 м.
Битрейт : 49,7 Мбит/сек
Ширина : 3840 пикселей
Высота : 2160 пикселей
Соотношение сторон : 16:9
Режим частоты кадров : Постоянный
Частота кадров : 23,976 (24000/1001) кадра/сек
Цветовое пространство : YUV
Субдискретизация насыщенности : 4:2:0 (Type 2)
Битовая глубина : 10 бит
Бит/(Пиксели*Кадры) : 0.250
Размер потока : 38,7 Гбайт (80%)
Заголовок : HEVC / 49719 kbps / 2160p / 23.976 fps / HDR /
Язык : English
Default : Да
Forced : Нет
Цветовой диапазон : Limited
Основные цвета : BT.2020
Характеристики трансфера : PQ
Коэффициенты матрицы : BT.2020 non-constant
MasteringDisplay_Luminance : min: 0.0050 cd/m2, max: 1000 cd/m2
MaxCLL : 1000 cd/m2
MaxFALL : 928 cd/m2
Аудио #1
Идентификатор : 2
Формат : DTS
Формат/Информация : Digital Theater Systems
Профиль формата : MA / Core
Идентификатор кодека : A_DTS
Продолжительность : 1 ч. 51 м.
Вид битрейта : Переменный / Постоянный
Битрейт : 5788 Кбит/сек / 1509 Кбит/сек
Каналы : 8 каналов / 6 каналов
Расположение каналов : Front: L C R, Side: L R, Back: L R, LFE / Front: L C R, Side: L R, LFE
Частота : 48,0 КГц
Частота кадров : 93,750 кадра/сек (512 SPF)
Битовая глубина : 24 бит
Метод сжатия : Без потерь / Lossy
Размер потока : 4,51 Гбайт (9%)
Заголовок : | Дублированный |
Язык : Russian
Default : Да
Forced : Нет
Аудио #2
Идентификатор : 3
Формат : AC-3
Формат/Информация : Audio Coding 3
Идентификатор кодека : A_AC3
Продолжительность : 1 ч. 51 м.
Вид битрейта : Постоянный
Битрейт : 640 Кбит/сек
Каналы : 6 каналов
Расположение каналов : Front: L C R, Side: L R, LFE
Частота : 48,0 КГц
Частота кадров : 31,250 кадров/сек (1536 SPF)
Битовая глубина : 16 бит
Метод сжатия : С потерями
Размер потока : 510 Мбайт (1%)
Заголовок : | Дублированный |
Язык : Russian
ServiceKind/String : Complete Main
Default : Нет
Forced : Нет
Аудио #3
Идентификатор : 4
Формат : TrueHD
Профиль формата : TrueHD+Atmos / TrueHD
Идентификатор кодека : A_TRUEHD
Продолжительность : 1 ч. 51 м.
Вид битрейта : Переменный
Битрейт : 5399 Кбит/сек
Максимальный битрейт : 9315 Кбит/сек
Каналы : Object Based / 8 каналов
Расположение каналов : Object Based / Front: L C R, Side: L R, Back: L R, LFE
Частота : / 48,0 КГц
Частота кадров : 1200,000 кадров/сек (40 SPF)
Метод сжатия : Без потерь
Размер потока : 4,20 Гбайт (9%)
Заголовок : | Original |
Язык : English
Default : Нет
Forced : Нет
Аудио #4
Идентификатор : 5
Формат : AC-3
Формат/Информация : Audio Coding 3
Идентификатор кодека : A_AC3
Продолжительность : 1 ч. 51 м.
Вид битрейта : Постоянный
Битрейт : 448 Кбит/сек
Каналы : 6 каналов
Расположение каналов : Front: L C R, Side: L R, LFE
Частота : 48,0 КГц
Частота кадров : 31,250 кадров/сек (1536 SPF)
Битовая глубина : 16 бит
Метод сжатия : С потерями
Размер потока : 357 Мбайт (1%)
Заголовок : | Original, AC3 Core |
Язык : English
ServiceKind/String : Complete Main
Default : Нет
Forced : Нет
Аудио #5
Идентификатор : 6
Формат : AC-3
Формат/Информация : Audio Coding 3
Идентификатор кодека : A_AC3
Продолжительность : 1 ч. 51 м.
Вид битрейта : Постоянный
Битрейт : 192 Кбит/сек
Каналы : 2 канала
Расположение каналов : Front: L R
Частота : 48,0 КГц
Частота кадров : 31,250 кадров/сек (1536 SPF)
Битовая глубина : 16 бит
Метод сжатия : С потерями
Размер потока : 153 Мбайт (0%)
Заголовок : | Commentary by Director |
Язык : English
ServiceKind/String : Complete Main
Default : Нет
Forced : Нет
Текст #1
Идентификатор : 7
Формат : UTF-8
Идентификатор кодека : S_TEXT/UTF8
Идентификатор кодека/Информация : UTF-8 Plain Text
Продолжительность : 7 м. 7 с.
Битрейт : 1 бит/сек
ElementCount : 4
Размер потока : 76,0 байт (0%)
Заголовок : Forced
Язык : Russian
Default : Да
Forced : Да
Текст #2
Идентификатор : 8
Формат : UTF-8
Идентификатор кодека : S_TEXT/UTF8
Идентификатор кодека/Информация : UTF-8 Plain Text
Продолжительность : 1 ч. 45 м.
Битрейт : 61 бит/сек
ElementCount : 863
Размер потока : 47,8 Кбайт (0%)
Заголовок : Full
Язык : Russian
Default : Нет
Forced : Нет
Текст #3
Идентификатор : 9
Формат : UTF-8
Идентификатор кодека : S_TEXT/UTF8
Идентификатор кодека/Информация : UTF-8 Plain Text
Продолжительность : 1 ч. 45 м.
Битрейт : 49 бит/сек
ElementCount : 693
Размер потока : 38,5 Кбайт (0%)
Заголовок : Full
Язык : Ukrainian
Default : Нет
Forced : Нет
Текст #4
Идентификатор : 10
Формат : UTF-8
Идентификатор кодека : S_TEXT/UTF8
Идентификатор кодека/Информация : UTF-8 Plain Text
Продолжительность : 1 ч. 45 м.
Битрейт : 38 бит/сек
ElementCount : 842
Размер потока : 29,9 Кбайт (0%)
Заголовок : Full
Язык : English
Default : Нет
Forced : Нет
Текст #5
Идентификатор : 11
Формат : UTF-8
Идентификатор кодека : S_TEXT/UTF8
Идентификатор кодека/Информация : UTF-8 Plain Text
Продолжительность : 1 ч. 47 м.
Битрейт : 117 бит/сек
ElementCount : 1967
Размер потока : 92,4 Кбайт (0%)
Заголовок : Commentary
Язык : English
Default : Нет
Forced : Нет
Меню
00:00:00.000 : en:Patient Zero
00:07:37.248 : en:You're a Watcher
00:15:16.916 : en:The Fish Market
00:21:54.146 : en:We Die
00:28:58.362 : en:Sorry About Your Brother
00:33:56.743 : en:It's Dead
00:40:30.136 : en:Had Yourself Wiped
00:47:04.447 : en:The Shadow
00:54:15.335 : en:Going to Change the Future
01:03:20.714 : en:A Plan Without Planing
01:10:14.794 : en:Seven Letters
01:16:47.353 : en:The Case
01:23:14.031 : en:Let Me Help You Remember
01:30:03.565 : en:I Used You, Nick
01:32:29.669 : en:We Are the Only Government Here
01:43:19.819 : en:What a Waste

Скриншоты

[Цитировать]



Показать сообщения:    

Текущее время: 18-Окт 22:37

Часовой пояс: UTC + 6


Вы не можете начинать темы
Вы не можете отвечать на сообщения
Вы не можете редактировать свои сообщения
Вы не можете удалять свои сообщения
Вы не можете голосовать в опросах
Вы не можете прикреплять файлы к сообщениям
Вы не можете скачивать файлы

!ВНИМАНИЕ!
Сайт не предоставляет электронные версии произведений, а занимается лишь коллекционированием и каталогизацией ссылок, присылаемых и публикуемых на форуме нашими читателями. Если вы являетесь правообладателем какого-либо представленного материала и не желаете, чтобы ссылка на него находилась в нашем каталоге, свяжитесь с нами, и мы незамедлительно удалим ее. Файлы для обмена на трекере предоставлены пользователями сайта, и администрация не несет ответственности за их содержание. Просьба не заливать файлы, защищенные авторскими правами, а также файлы нелегального содержания!