[ Сегодня идет свободное скачивание без начисления Download ]


Статистика раздачи
Нет
 
   
 
 
 
 
Плохая партия / The Bad Batch (2016) BDRip 720p Информация о фильме
Название: Плохая партия
Оригинальное название: The Bad Batch
Год выхода: 2016
Жанр: драма, ужасы, мелодрама
Режиссер: Ана Лили Амирпур
В ролях: Сьюки Уотерхаус, Джейсон Момоа, Джайда Финк, Киану Ривз, Джим Керри, Йолонда Росс, Ай Хасегава, Джованни Рибизи, Луи Лопез Мл., Е.Р. Руис, Кори Робертс, Альма Ивонн, Алина Алилуйкина, Эшли Биллер, Нина Манскер, Эмили О’Брайэн, Джозеф Авиль, Джонни Линч
О фильме: Футуристическая антиутопия разворачивается на территории Америки, где все неугодные обществу люди изгоняются в отгороженную от цивилизации техасскую пустыню. Девушку Арлин по прибытии на дикую территорию ловит группа каннибалов, и перед новенькой маячат совсем безрадостные перспективы — бороться за жизнь любой ценой или быть медленно съеденной.

Страна: США
Продолжительность: 01:58:39
Перевод: Профессиональный (многоголосый закадровый) СВ Студия
Субтитры: русские, английские
Оригинальная аудиодорожка: английский
Файл
Качество: BDRip 720p
Видео: MPEG-4, 1280x536 (2.40:1), 23.976 fps, 6100 kbps, 0.371 bit/pixel
Аудио 1: Русский DTS 5.1 / 48 kHz / 1509 kbps / 24-bit
Аудио 2: Английский DTS 5.1 / 48 kHz / 1509 kbps / 24-bit

Скриншоты

MediaInfo

Общее
Уникальный идентификатор : 247632711652506822316054506593678303541 (0xBA4C53513977DE0B9F8ECC17994CA135)
Полное имя : Плохая.партия.The.Bad.Batch.2017.720p.mkv
Формат : Matroska
Версия формата : Version 4 / Version 2
Размер файла : 7,55 Гбайт
Продолжительность : 1 ч. 58 м.
Общий поток : 9113 Кбит/сек
Дата кодирования : UTC 2017-12-06 10:54:02
Программа кодирования : mkvmerge v18.0.0 ('Apricity') 64-bit
Библиотека кодирования : libebml v1.3.5 + libmatroska v1.4.8
Обложка : Yes
Attachments : cover.jpg
Видео
Идентификатор : 1
Формат : AVC
Формат/Информация : Advanced Video Codec
Профиль формата : High@L4.1
Настройки формата : CABAC / 12 Ref Frames
Параметр CABAC формата : Да
Параметр RefFrames формата : 12 кадров
Идентификатор кодека : V_MPEG4/ISO/AVC
Продолжительность : 1 ч. 58 м.
Битрейт : 6100 Кбит/сек
Ширина : 1280 пикселей
Высота : 536 пикселей
Соотношение сторон : 2,40:1
Режим частоты кадров : Постоянный
Частота кадров : 23,976 (24000/1001) кадра/сек
Цветовое пространство : YUV
Субдискретизация насыщенности : 4:2:0
Битовая глубина : 8 бит
Тип развёртки : Прогрессивная
Бит/(Пиксели*Кадры) : 0.371
Размер потока : 5,05 Гбайт (67%)
Библиотека кодирования : x264 core 152 r2851kMod ba24899
Настройки программы : cabac=1 / ref=12 / deblock=1:-3:-3 / analyse=0x3:0x133 / me=umh / subme=10 / psy=1 / fade_compensate=0.00 / psy_rd=1.05:0.00 / mixed_ref=1 / me_range=32 / chroma_me=1 / trellis=2 / 8x8dct=1 / cqm=0 / deadzone=21,11 / fast_pskip=1 / chroma_qp_offset=-2 / threads=6 / lookahead_threads=1 / sliced_threads=0 / nr=0 / decimate=1 / interlaced=0 / bluray_compat=0 / constrained_intra=0 / bframes=8 / b_pyramid=2 / b_adapt=2 / b_bias=0 / direct=3 / weightb=1 / open_gop=0 / weightp=2 / keyint=250 / keyint_min=23 / scenecut=40 / intra_refresh=0 / rc=2pass / mbtree=0 / bitrate=6100 / ratetol=1.0 / qcomp=0.60 / qpmin=0 / qpmax=69 / qpstep=4 / cplxblur=20.0 / qblur=0.5 / ip_ratio=1.30 / pb_ratio=1.20 / aq=3:0.75 / zones=0,680,b=3/13871,14204,b=2/16572,17786,b=2/31408,39268,b=2/64279,86298,b=3/102226,111460,b=3/119797,123206,b=2/133382,150484,b=2
Язык : English
Default : Да
Forced : Нет
Цветовой диапазон : Limited
Коэффициенты матрицы : BT.709
Аудио #1
Идентификатор : 2
Формат : DTS
Формат/Информация : Digital Theater Systems
Идентификатор кодека : A_DTS
Продолжительность : 1 ч. 58 м.
Вид битрейта : Постоянный
Битрейт : 1509 Кбит/сек
Каналы : 6 каналов
Расположение каналов : Front: L C R, Side: L R, LFE
Частота : 48,0 КГц
Частота кадров : 93,750 кадра/сек (512 SPF)
Битовая глубина : 24 бит
Метод сжатия : С потерями
Размер потока : 1,25 Гбайт (17%)
Заголовок : Профессиональный многоголосый закадровый / СВ Студия
Язык : Russian
Default : Да
Forced : Нет
Аудио #2
Идентификатор : 3
Формат : DTS
Формат/Информация : Digital Theater Systems
Идентификатор кодека : A_DTS
Продолжительность : 1 ч. 58 м.
Вид битрейта : Постоянный
Битрейт : 1509 Кбит/сек
Каналы : 6 каналов
Расположение каналов : Front: L C R, Side: L R, LFE
Частота : 48,0 КГц
Частота кадров : 93,750 кадра/сек (512 SPF)
Битовая глубина : 24 бит
Метод сжатия : С потерями
Размер потока : 1,25 Гбайт (17%)
Язык : English
Default : Нет
Forced : Нет
Текст #1
Идентификатор : 4
Формат : UTF-8
Идентификатор кодека : S_TEXT/UTF8
Идентификатор кодека/Информация : UTF-8 Plain Text
Продолжительность : 1 ч. 51 м.
Битрейт : 26 бит/сек
ElementCount : 508
Размер потока : 21,3 Кбайт (0%)
Язык : Russian
Default : Нет
Forced : Нет
Текст #2
Идентификатор : 5
Формат : UTF-8
Идентификатор кодека : S_TEXT/UTF8
Идентификатор кодека/Информация : UTF-8 Plain Text
Продолжительность : 1 ч. 58 м.
Битрейт : 25 бит/сек
ElementCount : 844
Размер потока : 22,5 Кбайт (0%)
Язык : English
Default : Нет
Forced : Нет
Текст #3
Идентификатор : 6
Формат : UTF-8
Идентификатор кодека : S_TEXT/UTF8
Идентификатор кодека/Информация : UTF-8 Plain Text
Продолжительность : 1 ч. 58 м.
Битрейт : 28 бит/сек
ElementCount : 1058
Размер потока : 25,0 Кбайт (0%)
Заголовок : SDH
Язык : English
Default : Нет
Forced : Нет
Меню
00:00:00.000 : en:00:00:00.000
00:07:15.226 : en:00:07:15.226
00:18:09.379 : en:00:18:09.379
00:29:15.670 : en:00:29:15.670
00:38:49.618 : en:00:38:49.618
00:46:13.395 : en:00:46:13.395
00:59:59.387 : en:00:59:59.387
01:11:03.676 : en:01:11:03.676
01:21:51.907 : en:01:21:51.907
01:31:33.946 : en:01:31:33.946
01:40:35.779 : en:01:40:35.779
01:53:19.292 : en:01:53:19.292

[Цитировать]



Показать сообщения:    

Текущее время: 23-Окт 19:02

Часовой пояс: UTC + 6


Вы не можете начинать темы
Вы не можете отвечать на сообщения
Вы не можете редактировать свои сообщения
Вы не можете удалять свои сообщения
Вы не можете голосовать в опросах
Вы не можете прикреплять файлы к сообщениям
Вы не можете скачивать файлы

!ВНИМАНИЕ!
Сайт не предоставляет электронные версии произведений, а занимается лишь коллекционированием и каталогизацией ссылок, присылаемых и публикуемых на форуме нашими читателями. Если вы являетесь правообладателем какого-либо представленного материала и не желаете, чтобы ссылка на него находилась в нашем каталоге, свяжитесь с нами, и мы незамедлительно удалим ее. Файлы для обмена на трекере предоставлены пользователями сайта, и администрация не несет ответственности за их содержание. Просьба не заливать файлы, защищенные авторскими правами, а также файлы нелегального содержания!