[ Сегодня идет свободное скачивание без начисления Download ]


Статистика раздачи
Качаю: [ 1 ]
Скачал: [ 2 ]
 
   
 
 
 
 
Пассажир / The Commuter / 2018 [4K, HEVC, HDR / Blu-Ray Remux] (2160p) Год выпуска: 2018
Жанр: Триллер, драма, криминал, детектив
Выпущено: Великобритания, США, Ombra Films, StudioCanal
Режиссер: Жаума Кольет-Серра
Продолжительность: 01:44:55
Перевод: Дублированный, профессиональный многоголосый
Субтитры: Русские, английские
возраст 16+
В ролях: Лиам Нисон, Вера Фармига, Сэм Нилл, Патрик Уилсон, Джонатан Бэнкс, Элизабет МакГоверн, Шазад Латиф, Флоренс Пью, Летишиа Райт, Киллиан Скотт

О фильме
: Жизнь обыкновенного сотрудника страхового агентства Майка состояла из ежедневной работы, которая не приносила ему удовольствия. Уставший мужчина два раз в день должен был совершать поездку в поезде, все пассажиры которого ему казались уже давно знакомыми и привычными. И лишь однажды в толпе он смог разглядеть прекрасную незнакомку, которая проявила инициативу и решила познакомиться с ним. Привлекательная девушка предложила Майку своеобразный эксперимент в результате которого ему просто было необходимо найти определенного человека в переполненном поезде. В случае успешного выполнения задачи он мог получить солидную финансовую награду. А о возможных последствиях поражения доверчивый страховщик даже не поинтересовался. У него было совсем немного времени для принятия правильного решения, потому что красавица могла запросто найти другого претендента на прохождение лабиринта. Вот только последствия в случае согласия могли стать началом огромных проблем.
Пассажир(2018) - Русский трейлер
Техданные
Качество
: Blu-Ray Remux (2160p)
Видео: HEVC, 58,6 Мбит/сек, 3840x2160, 23.976 Кадр/с
Аудио: Русский (AC3, 6 ch, 384 Кбит/с), (AC3, 2 ch, 384 Кбит/с), английский (TrueHD, 8 ch, 4970 Кбит/с), (AC3, 6 ch, 448 Кбит/с)

Релиз

Видео: HEVC, 3840x2160 (16:9), 23.976 fps, 58.6 Mb/s (0.295 bit/pixel)
Аудио #1: |RUS| AC-3, 48.0 kHz, 6 ch, 384 kb/s, CBR | Дублированный [iTunes] |
Аудио #2: |RUS| AC-3, 48.0 kHz, 2 ch, 384 kb/s, CBR | MVO, [HDRezka Studio] |
Аудио #3: |ENG| TrueHD TrueHD+Atmos / TrueHD, / 48.0 kHz, Object Based / 8 ch, 4 211 kb/s, VBR | Original |
Аудио #4: |ENG| AC-3, 48.0 kHz, 6 ch, 448 kb/s, CBR | Original, AC3 Core |
Аудио #5: |ENG| AC-3, 48.0 kHz, 2 ch, 192 kb/s, CBR | Audiodescription |
Субтитры: Russian (Full), English (Full, SDH, SDH-Colored)

MediaInfo:

Общее
Уникальный идентификатор : 211852675139412462569029395640328438049 (0x9F61575157F0C748E303F73481BCC121)
Полное имя : The.Commuter.2018.D.MVO.UHD.BDRemux.2160p.HEVC.HDR.IVA(RUS.ENG).ExKinoRay.mkv
Формат : Matroska
Версия формата : Version 4 / Version 2
Размер файла : 47,1 Гбайт
Продолжительность : 1 ч. 44 м.
Режим общего битрейта : Переменный
Общий поток : 64,3 Мбит/сек
Название фильма : Пассажир / The Commuter ( 2018 ) BDRemux | HDR, 4K | IVA(RUS.ENG) | ExKinoRay
Дата кодирования : UTC 2018-04-18 19:15:20
Программа кодирования : mkvmerge v22.0.0 ('At The End Of The World') 64-bit
Библиотека кодирования : libebml v1.3.5 + libmatroska v1.4.8
Обложка : Yes
Видео
Идентификатор : 1
Формат : HEVC
Формат/Информация : High Efficiency Video Coding
Коммерческое название : HDR10
Профиль формата : Main 10@L5.1@High
Идентификатор кодека : V_MPEGH/ISO/HEVC
Продолжительность : 1 ч. 44 м.
Битрейт : 58,6 Мбит/сек
Ширина : 3840 пикселей
Высота : 2160 пикселей
Соотношение сторон : 16:9
Режим частоты кадров : Постоянный
Частота кадров : 23,976 (24000/1001) кадра/сек
Цветовое пространство : YUV
Субдискретизация насыщенности : 4:2:0 (Type 2)
Битовая глубина : 10 бит
Бит/(Пиксели*Кадры) : 0.295
Размер потока : 42,9 Гбайт (91%)
Заголовок : The.Commuter.2018.UHD.BDRemux.2160p.HEVC.HDR
Язык : English
Default : Да
Forced : Нет
Цветовой диапазон : Limited
Основные цвета : BT.2020
Характеристики трансфера : PQ
Коэффициенты матрицы : BT.2020 non-constant
MasteringDisplay_ColorPrimaries : BT.709
MasteringDisplay_Luminance : min: 0.0050 cd/m2, max: 1000 cd/m2
MaxCLL : 1000 cd/m2
MaxFALL : 530 cd/m2
Аудио #1
Идентификатор : 2
Формат : AC-3
Формат/Информация : Audio Coding 3
Идентификатор кодека : A_AC3
Продолжительность : 1 ч. 44 м.
Вид битрейта : Постоянный
Битрейт : 384 Кбит/сек
Каналы : 6 каналов
Расположение каналов : Front: L C R, Side: L R, LFE
Частота : 48,0 КГц
Частота кадров : 31,250 кадров/сек (1536 SPF)
Битовая глубина : 16 бит
Метод сжатия : С потерями
Размер потока : 288 Мбайт (1%)
Заголовок : | iTunes |
Язык : Russian
ServiceKind/String : Complete Main
Default : Да
Forced : Да
Аудио #2
Идентификатор : 3
Формат : AC-3
Формат/Информация : Audio Coding 3
Идентификатор кодека : A_AC3
Продолжительность : 1 ч. 44 м.
Вид битрейта : Постоянный
Битрейт : 384 Кбит/сек
Каналы : 2 канала
Расположение каналов : Front: L R
Частота : 48,0 КГц
Частота кадров : 31,250 кадров/сек (1536 SPF)
Битовая глубина : 16 бит
Метод сжатия : С потерями
Размер потока : 288 Мбайт (1%)
Заголовок : | MVO [HDRezka] |
Язык : Russian
ServiceKind/String : Complete Main
Default : Нет
Forced : Нет
Аудио #3
Идентификатор : 4
Формат : TrueHD
Профиль формата : TrueHD+Atmos / TrueHD
Идентификатор кодека : A_TRUEHD
Продолжительность : 1 ч. 44 м.
Вид битрейта : Переменный
Битрейт : 4211 Кбит/сек
Максимальный битрейт : 7737 Кбит/сек
Каналы : Object Based / 8 каналов
Расположение каналов : Object Based / Front: L C R, Side: L R, Back: L R, LFE
Частота : / 48,0 КГц
Частота кадров : 1200,000 кадров/сек (40 SPF)
Метод сжатия : Без потерь
Размер потока : 3,09 Гбайт (7%)
Заголовок : | Original |
Язык : English
Default : Нет
Forced : Нет
Аудио #4
Идентификатор : 5
Формат : AC-3
Формат/Информация : Audio Coding 3
Идентификатор кодека : A_AC3
Продолжительность : 1 ч. 44 м.
Вид битрейта : Постоянный
Битрейт : 448 Кбит/сек
Каналы : 6 каналов
Расположение каналов : Front: L C R, Side: L R, LFE
Частота : 48,0 КГц
Частота кадров : 31,250 кадров/сек (1536 SPF)
Битовая глубина : 16 бит
Метод сжатия : С потерями
Размер потока : 336 Мбайт (1%)
Заголовок : | Original, AC3 Core |
Язык : English
ServiceKind/String : Complete Main
Default : Нет
Forced : Нет
Аудио #5
Идентификатор : 6
Формат : AC-3
Формат/Информация : Audio Coding 3
Идентификатор кодека : A_AC3
Продолжительность : 1 ч. 44 м.
Вид битрейта : Постоянный
Битрейт : 192 Кбит/сек
Каналы : 2 канала
Расположение каналов : Front: L R
Частота : 48,0 КГц
Частота кадров : 31,250 кадров/сек (1536 SPF)
Битовая глубина : 16 бит
Метод сжатия : С потерями
Задержка видео : 5 мс.
Размер потока : 144 Мбайт (0%)
Заголовок : | Audiodescription |
Язык : English
ServiceKind/String : Complete Main
Default : Нет
Forced : Нет
Текст #1
Идентификатор : 7
Формат : UTF-8
Идентификатор кодека : S_TEXT/UTF8
Идентификатор кодека/Информация : UTF-8 Plain Text
Продолжительность : 1 ч. 37 м.
Битрейт : 94 бит/сек
ElementCount : 1429
Размер потока : 67,4 Кбайт (0%)
Заголовок : Full
Язык : Russian
Default : Нет
Forced : Нет
Текст #2
Идентификатор : 8
Формат : UTF-8
Идентификатор кодека : S_TEXT/UTF8
Идентификатор кодека/Информация : UTF-8 Plain Text
Продолжительность : 1 ч. 37 м.
Битрейт : 64 бит/сек
ElementCount : 1342
Размер потока : 46,0 Кбайт (0%)
Заголовок : Full
Язык : English
Default : Нет
Forced : Нет
Текст #3
Идентификатор : 9
Формат : UTF-8
Идентификатор кодека : S_TEXT/UTF8
Идентификатор кодека/Информация : UTF-8 Plain Text
Продолжительность : 1 ч. 37 м.
Битрейт : 71 бит/сек
ElementCount : 1594
Размер потока : 51,3 Кбайт (0%)
Заголовок : SDH
Язык : English
Default : Нет
Forced : Нет
Текст #4
Идентификатор : 10
Формат : UTF-8
Идентификатор кодека : S_TEXT/UTF8
Идентификатор кодека/Информация : UTF-8 Plain Text
Продолжительность : 1 ч. 37 м.
Битрейт : 107 бит/сек
ElementCount : 1594
Размер потока : 77,1 Кбайт (0%)
Заголовок : SDH Colored
Язык : English
Default : Нет
Forced : Нет
Меню
00:00:00.000 : en:Chapter 1
00:05:38.254 : en:Chapter 2
00:12:23.492 : en:Chapter 3
00:16:54.471 : en:Chapter 4
00:25:36.117 : en:Chapter 5
00:32:20.855 : en:Chapter 6
00:41:37.953 : en:Chapter 7
00:44:38.217 : en:Chapter 8
00:52:38.989 : en:Chapter 9
00:59:30.650 : en:Chapter 10
01:04:50.845 : en:Chapter 11
01:11:53.517 : en:Chapter 12
01:20:23.318 : en:Chapter 13
01:25:23.159 : en:Chapter 14
01:30:45.648 : en:Chapter 15
01:37:26.340 : en:Chapter 16

Скриншоты

[Цитировать]



Показать сообщения:    

Текущее время: 23-Окт 16:27

Часовой пояс: UTC + 6


Вы не можете начинать темы
Вы не можете отвечать на сообщения
Вы не можете редактировать свои сообщения
Вы не можете удалять свои сообщения
Вы не можете голосовать в опросах
Вы не можете прикреплять файлы к сообщениям
Вы не можете скачивать файлы

!ВНИМАНИЕ!
Сайт не предоставляет электронные версии произведений, а занимается лишь коллекционированием и каталогизацией ссылок, присылаемых и публикуемых на форуме нашими читателями. Если вы являетесь правообладателем какого-либо представленного материала и не желаете, чтобы ссылка на него находилась в нашем каталоге, свяжитесь с нами, и мы незамедлительно удалим ее. Файлы для обмена на трекере предоставлены пользователями сайта, и администрация не несет ответственности за их содержание. Просьба не заливать файлы, защищенные авторскими правами, а также файлы нелегального содержания!