[ Сегодня идет свободное скачивание без начисления Download ]


Статистика раздачи
Скачал: [ 5 ]
 
   
 
 
 
 
Особняк «Красная роза» / Rose Red (2002) DVDRip-AVC Информация о фильме
Название: Особняк «Красная роза»
Оригинальное название: Rose Red
Год выхода: 2002
Жанр: ужасы, триллер, детектив
Режиссер: Крэйг Р. Бэксли
В ролях: Нэнси Трэвис, Мэтт Кислар, Дэвид Дьюкс, Кимберли Дж. Браун, Джудит Айви, Мелани Лински, Мэтт Росс, Кевин Тай, Джулиан Сэндс, Джулия Кемпбелл
О фильме: Действительно ли в особняке «Красная роза» обитают привидения? Чтобы выяснить это, профессор Джойс Рердон приглашает шестерых экстрасенсов принять участие в опасном эксперименте: попытке разбудить сверхъестественные силы, обитающие в этом старинном доме. Необходимо отметить эту дату в своем календаре. И, на всякий случай, — застраховать жизнь.

Производство: Victor Television Productions, Lions Gate Films (США, Канада)
Продолжительность: 04:14:20
Перевод: Профессиональный (многоголосый, закадровый)
Качество: DVDRip-AVC
Видео: 1024x576(16:9), 2400 Kbps, 23,98 fps
Звук: AC3, 384 Kbps, 48.0 KHz, 6 ch-

MediaInfo

General
Unique ID : 241004890399326962376257685578924312537 (0xB54FDA800CB69346A488F53AC1A647D9)
Complete name : D:uTorrentRose.Red.2002.DVD-9.rutor.mkv
Format : Matroska
Format version : Version 2
File size : 4.95 GiB
Duration : 4h 14mn
Overall bit rate : 2 786 Kbps
Encoded date : UTC 2018-04-25 09:37:02
Writing application : mkvmerge v6.9.1 ('Blue Panther') 32bit built on Apr 18 2014 18:15:44
Writing library : libebml v1.3.0 + libmatroska v1.4.1
Video
ID : 1
Format : AVC
Format/Info : Advanced Video Codec
Format profile : High@L3.2
Format settings, CABAC : Yes
Format settings, ReFrames : 8 frames
Codec ID : V_MPEG4/ISO/AVC
Duration : 4h 14mn
Bit rate : 2 400 Kbps
Width : 1 024 pixels
Height : 576 pixels
Display aspect ratio : 16:9
Frame rate : 23.976 fps
Color space : YUV
Chroma subsampling : 4:2:0
Bit depth : 8 bits
Scan type : Progressive
Bits/(Pixel*Frame) : 0.170
Stream size : 4.17 GiB (84%)
Writing library : x264 core 148 r2638 7599210
Encoding settings : cabac=1 / ref=8 / deblock=1:-1:-1 / analyse=0x3:0x133 / me=umh / subme=7 / psy=1 / psy_rd=1.00:0.10 / mixed_ref=1 / me_range=16 / chroma_me=1 / trellis=2 / 8x8dct=1 / cqm=0 / deadzone=21,11 / fast_pskip=0 / chroma_qp_offset=-3 / threads=6 / lookahead_threads=1 / sliced_threads=0 / nr=0 / decimate=1 / interlaced=0 / bluray_compat=0 / constrained_intra=0 / bframes=3 / b_pyramid=2 / b_adapt=2 / b_bias=0 / direct=3 / weightb=1 / open_gop=0 / weightp=2 / keyint=250 / keyint_min=23 / scenecut=40 / intra_refresh=0 / rc_lookahead=50 / rc=2pass / mbtree=1 / bitrate=2400 / ratetol=1.0 / qcomp=0.60 / qpmin=0 / qpmax=69 / qpstep=4 / cplxblur=20.0 / qblur=0.5 / ip_ratio=1.40 / aq=1:1.00
Default : Yes
Forced : No
Audio
ID : 2
Format : AC-3
Format/Info : Audio Coding 3
Mode extension : CM (complete main)
Format settings, Endianness : Big
Codec ID : A_AC3
Duration : 4h 14mn
Bit rate mode : Constant
Bit rate : 384 Kbps
Channel(s) : 6 channels
Channel positions : Front: L C R, Side: L R, LFE
Sampling rate : 48.0 KHz
Bit depth : 16 bits
Compression mode : Lossy
Stream size : 699 MiB (14%)
Default : Yes
Forced : No
-

Скриншоты

[Цитировать]



Показать сообщения:    

Текущее время: 23-Июл 02:29

Часовой пояс: UTC + 6


Вы не можете начинать темы
Вы не можете отвечать на сообщения
Вы не можете редактировать свои сообщения
Вы не можете удалять свои сообщения
Вы не можете голосовать в опросах
Вы не можете прикреплять файлы к сообщениям
Вы не можете скачивать файлы

!ВНИМАНИЕ!
Сайт не предоставляет электронные версии произведений, а занимается лишь коллекционированием и каталогизацией ссылок, присылаемых и публикуемых на форуме нашими читателями. Если вы являетесь правообладателем какого-либо представленного материала и не желаете, чтобы ссылка на него находилась в нашем каталоге, свяжитесь с нами, и мы незамедлительно удалим ее. Файлы для обмена на трекере предоставлены пользователями сайта, и администрация не несет ответственности за их содержание. Просьба не заливать файлы, защищенные авторскими правами, а также файлы нелегального содержания!