[ Сегодня идет свободное скачивание без начисления Download ]


Статистика раздачи
Скачал: [ 24 ]
 
   
 
 
 
 
Путешествие к центру души [1-16 из 16] (2018) WEB-DLRip Оригинальное название: Путешествие к центру души
Год выпуска: 2018
Жанр: Мелодрама
Выпущено: Россия, Украина, Кинокомпания "Star Media"
Режиссер: Дмитрий Матов
В ролях: Мария Баева, Анастасия Иванова (II), Александр Робак, Андрей Аверков, Екатерина Семёнова, Игорь Скрипко, Даниил Мирешкин, Артём Позняк, Константин Корецкий, Ольга Радчук, Игорь Петрусенко, Сергей Деньга, Владимир Абазопуло (младший), Людмила Загорская
О фильме: Сага о судьбах двух девушек – Риты и Веры, ставших ближайшими подругами в переломный исторический момент распада СССР. История развивается на протяжении двадцати лет. Из-за любви к одному мужчине – Максиму, Рита и Вера из лучших подруг превращаются в смертельно опасных друг для друга врагов. Коварная Вера мучительно завидуя Рите мечтает прибрать к рукам не только ее любимого, но и Ритины деньги и Ритину жизнь. А Рита хочет начать все с чистого листа. И судьба дает каждой из них уникальный шанс: начать жизнь заново. Но старые обиды и грехи не позволяют Вере забыть о прошлом и перестать ненавидеть более удачливую и чистую подругу Риту.
Файл:
Качество: WEB-DLRip
Видео: XviD ~ 1635 Кбит/с, 720x400
Аудио: AC3, 2 ch, 192 Кбит/с
Продолжительность: х ~ 00:44:55
Язык: Русский
Доп. ин.-ция

Внимание! Раздача ведётся путём добавления новых серий

Раздача ведётся путём добавления новых серий, при каждом добавлении создаётся новый торрент. Чтобы начать докачку новой серии, пользователям необходимо сделать следующее:
- Остановить скачивание.
- Удалить старый торрент у себя из клиента (старые серии удалять не надо).
- Скачать новый торрент и запустить его у себя в клиенте вместо старого, при этом указать клиенту путь в старую папку куда и должно происходить скачивание новых серий.
Ваш клиент при этом должен произвести хеширование (проверку) старой папки (если не производит сам - помогите ему сделать это), и будет докачивать только те серии которых у вас ещё нет. Старые серии при этом не удаляются, а продолжают раздаваться!

MediaInfo:

Общее
Полное имя : D:\моё видио\Путешествие к центру души.2018.WEB-DLRip.by.Nicodem.Files-x\01.Путешествие к центру души.2018.WEB-DLRip.by.Nicodem.Files-x.avi
Формат : AVI
Формат/Информация : Audio Video Interleave
Размер файла : 601 Мбайт
Продолжительность : 45 м.
Общий поток : 1836 Кбит/сек
Программа кодирования : VirtualDubMod 1.5.10.3 | www.virtualdub-fr.org || (build 2550/release)
Библиотека кодирования : VirtualDubMod build 2550/release
Видео
Идентификатор : 0
Формат : MPEG-4 Visual
Профиль формата : Advanced Simple@L5
Параметр BVOP формата : 1
Параметр QPel формата : Да
Параметр GMC формата : Без точки перехода
Параметр матрицы формата : Выборочная
Идентификатор кодека : XVID
Идентификатор кодека/Подсказка : XviD
Продолжительность : 45 м.
Битрейт : 1635 Кбит/сек
Ширина : 720 пикселей
Высота : 400 пикселей
Соотношение сторон : 16:9
Частота кадров : 25,000 кадров/сек
Цветовое пространство : YUV
Субдискретизация насыщенности : 4:2:0
Битовая глубина : 8 бит
Тип развёртки : Прогрессивная
Метод сжатия : С потерями
Бит/(Пиксели*Кадры) : 0.227
Размер потока : 535 Мбайт (89%)
Библиотека кодирования : XviD 73
Аудио
Идентификатор : 1
Формат : AC-3
Формат/Информация : Audio Coding 3
Расширение режима : CM (complete main)
Параметр Endianness формата : Big
Идентификатор кодека : 2000
Продолжительность : 45 м.
Вид битрейта : Постоянный
Битрейт : 192 Кбит/сек
Каналы : 2 канала
Расположение каналов : Front: L R
Частота : 48,0 КГц
Битовая глубина : 16 бит
Метод сжатия : С потерями
Размер потока : 62,9 Мбайт (10%)
Выравнивание : Разделение по промежуткам
Продолжительность промежутка : 40 мс. (1,00 видеокадр)
Время предзагрузки промежутка : 500 мс.

Скриншоты

Добавлены 1-16 серии.
Сериал залит полностью.


Последний раз редактировалось: papa1951deda (2018-05-27 17:28), всего редактировалось 2 раз(а)

[Цитировать]

Добавлены 15-16 серии.

[Цитировать]



Показать сообщения:    

Текущее время: 23-Окт 17:43

Часовой пояс: UTC + 6


Вы не можете начинать темы
Вы не можете отвечать на сообщения
Вы не можете редактировать свои сообщения
Вы не можете удалять свои сообщения
Вы не можете голосовать в опросах
Вы не можете прикреплять файлы к сообщениям
Вы не можете скачивать файлы

!ВНИМАНИЕ!
Сайт не предоставляет электронные версии произведений, а занимается лишь коллекционированием и каталогизацией ссылок, присылаемых и публикуемых на форуме нашими читателями. Если вы являетесь правообладателем какого-либо представленного материала и не желаете, чтобы ссылка на него находилась в нашем каталоге, свяжитесь с нами, и мы незамедлительно удалим ее. Файлы для обмена на трекере предоставлены пользователями сайта, и администрация не несет ответственности за их содержание. Просьба не заливать файлы, защищенные авторскими правами, а также файлы нелегального содержания!