[ Сегодня идет свободное скачивание без начисления Download ]


Статистика раздачи
Скачал: [ 2 ]
 
   
 
 
 
 
Чёрная Пантера / Black Panther (2018) BDRip-HEVC 2160p Информация о фильме
Название: Чёрная Пантера
Оригинальное название: Black Panther
Год выхода: 2018
Жанр: Фантастика, боевик, приключения, супергерой
Режиссер: Райан Куглер
В ролях: Чэдвик Боузмэн, Майкл Б. Джордан, Лупита Нионго, Данай Джекесай Гурира, Мартин Фриман, Дэниэл Калуя, Летишиа Райт, Уинстон Дьюк, Стерлинг К. Браун, Анджела Бассетт
О фильме:
Несколько веков назад на территорию пяти враждующих африканских племен упал метеорит из вибраниума - редкого металла, способного поглощать вибрацию и направленную на него кинетическую энергию. Один из воинов съедает несколько соцветий "сердцевидной травы", пораженной внеземным сплавом. Он получает неестественные способности, становится первой "Черной пантерой" и объединяет все племена (кроме гордых сыновей гор) в один народ, заложив основы единого государства под названием Ваканда. Жить стало лучше, жить стало веселее. Со временем примитивные пастухи освоили самые передовые технологии с использованием вибраниума, что позволило им достичь рекордных показателей по настригам и надоям, кардинально увеличить срок эксплуатации охотничьих копий, а также отказаться от дотаций и братских рук помощи. И если кто-то извне все-таки решался посягнуть на национальное достояние вакандцев - Черная пантера моментально пресекала недвусмысленные поползновения, стоя на страже мира и прогресса. Но теперь легендарному духу саванны предстоит столкнуться с новым врагом, не уступающим в силе и ловкости главному защитнику Ваканды.

Страна: США
Студия: Marvel Studios Inc., Walt Disney Pictures
Продолжительность: 02:14:44
Перевод: Дублированный, Профессиональный многоголосый
Файл
Кодек: H.265
Качество: BDRip-HEVC 2160p
Видео: HEVC SDR, 23.5 Mбит/с, 3840x1608, 23.976 кадр/с
Звук:
Русский (AC3, 6 ch, 384 Кбит/с) / Дублированный (iTunes)
Русский (AC3, 2 ch, 192 Кбит/с) / Профессиональный многоголосый (HDRezka Studio)
Английский (DTS, 6 ch, 1509 Кбит/с)
Субтитры: Русские (forced, full, SDH (iTunes)), английские (full, SDH, SDH Colored)

MI

General
Unique ID : 270033829274249054977806278577023048026 (0xCB269FB0067907A606F7E88400DB595A)
Complete name : D:uTorrentBlack.Panther.2018.2160p.BDRip-HEVC.SDR.MediaClub.mkv
Format : Matroska
Format version : Version 4 / Version 2
File size : 24.0 GiB
Duration : 2 h 14 min
Overall bit rate : 25.5 Mb/s
Encoded date : UTC 2018-05-13 09:09:10
Writing application : mkvmerge v19.0.0 ('Brave Captain') 64-bit
Writing library : libebml v1.3.5 + libmatroska v1.4.8
Cover : Yes
Attachments : cover.jpg
Video
ID : 1
Format : HEVC
Format/Info : High Efficiency Video Coding
Format profile : Main 10@L5.1@High
Codec ID : V_MPEGH/ISO/HEVC
Duration : 2 h 14 min
Bit rate : 23.5 Mb/s
Width : 3 840 pixels
Height : 1 608 pixels
Display aspect ratio : 2.40:1
Frame rate mode : Constant
Frame rate : 23.976 (24000/1001) FPS
Color space : YUV
Chroma subsampling : 4:2:0
Bit depth : 10 bits
Bits/(Pixel*Frame) : 0.158
Stream size : 22.1 GiB (92%)
Title : BDRip-HEVC.2160p.SDR by Silverok
Writing library : x265 2.5+4-b4a5bcfe29c7:[Windows][GCC 4.9.3][64 bit] 10bit
Encoding settings : cpuid=1173503 / frame-threads=16 / numa-pools=24,24,24,24 / wpp / no-pmode / no-pme / no-psnr / no-ssim / log-level=2 / input-csp=1 / input-res=3840x1608 / interlace=0 / total-frames=0 / level-idc=51 / high-tier=1 / uhd-bd=0 / ref=3 / no-allow-non-conformance / repeat-headers / annexb / aud / hrd / info / hash=0 / no-temporal-layers / no-open-gop / min-keyint=1 / keyint=24 / bframes=4 / b-adapt=2 / b-pyramid / bframe-bias=0 / rc-lookahead=25 / lookahead-slices=4 / scenecut=40 / no-intra-refresh / ctu=64 / min-cu-size=8 / no-rect / no-amp / max-tu-size=32 / tu-inter-depth=1 / tu-intra-depth=1 / limit-tu=0 / rdoq-level=0 / dynamic-rd=0.00 / no-ssim-rd / signhide / no-tskip / nr-intra=0 / nr-inter=0 / no-constrained-intra / strong-intra-smoothing / max-merge=2 / limit-refs=3 / no-limit-modes / me=1 / subme=2 / merange=57 / temporal-mvp / weightp / no-weightb / no-analyze-src-pics / deblock=0:0 / no-sao / no-sao-non-deblock / rd=3 / no-early-skip / rskip / no-fast-intra / no-tskip-fast / no-cu-lossless / no-b-intra / rdpenalty=0 / psy-rd=2.00 / psy-rdoq=0.00 / no-rd-refine / analysis-reuse-mode=0 / no-lossless / cbqpoffs=0 / crqpoffs=0 / rc=crf / crf=16.0 / qcomp=0.60 / qpstep=4 / stats-write=0 / stats-read=0 / vbv-maxrate=160000 / vbv-bufsize=160000 / vbv-init=0.9 / crf-max=0.0 / crf-min=0.0 / ipratio=1.40 / pbratio=1.30 / aq-mode=1 / aq-strength=1.00 / cutree / zone-count=0 / no-strict-cbr / qg-size=32 / no-rc-grain / qpmax=69 / qpmin=0 / no-const-vbv / sar=1 / overscan=0 / videoformat=5 / range=0 / colorprim=2 / transfer=2 / colormatrix=2 / chromaloc=0 / display-window=0 / max-cll=0,0 / min-luma=0 / max-luma=1023 / log2-max-poc-lsb=8 / vui-timing-info / vui-hrd-info / slices=1 / opt-qp-pps / opt-ref-list-length-pps / no-multi-pass-opt-rps / scenecut-bias=0.05 / no-opt-cu-delta-qp / no-aq-motion / no-hdr / no-hdr-opt / no-dhdr10-opt / analysis-reuse-level=5 / scale-factor=0 / refine-intra=0 / refine-inter=0 / refine-mv=0 / no-limit-sao / ctu-info=0
Default : Yes
Forced : No
Audio #1
ID : 2
Format : AC-3
Format/Info : Audio Coding 3
Codec ID : A_AC3
Duration : 2 h 14 min
Bit rate mode : Constant
Bit rate : 384 kb/s
Channel(s) : 6 channels
Channel positions : Front: L C R, Side: L R, LFE
Sampling rate : 48.0 kHz
Frame rate : 31.250 FPS (1536 SPF)
Bit depth : 16 bits
Compression mode : Lossy
Stream size : 370 MiB (2%)
Title : Дублированный (iTunes)
Language : Russian
Service kind : Complete Main
Default : Yes
Forced : No
Audio #2
ID : 3
Format : AC-3
Format/Info : Audio Coding 3
Codec ID : A_AC3
Duration : 2 h 14 min
Bit rate mode : Constant
Bit rate : 192 kb/s
Channel(s) : 2 channels
Channel positions : Front: L R
Sampling rate : 48.0 kHz
Frame rate : 31.250 FPS (1536 SPF)
Bit depth : 16 bits
Compression mode : Lossy
Stream size : 185 MiB (1%)
Title : Профессиональный многоголосый (HDRezka Studio)
Language : Russian
Service kind : Complete Main
Default : No
Forced : No
Audio #3
ID : 4
Format : DTS
Format/Info : Digital Theater Systems
Codec ID : A_DTS
Duration : 2 h 14 min
Bit rate mode : Constant
Bit rate : 1 509 kb/s
Channel(s) : 6 channels
Channel positions : Front: L C R, Side: L R, LFE
Sampling rate : 48.0 kHz
Frame rate : 93.750 FPS (512 SPF)
Bit depth : 24 bits
Compression mode : Lossy
Stream size : 1.42 GiB (6%)
Language : English
Default : No
Forced : No
Text #1
ID : 5
Format : UTF-8
Codec ID : S_TEXT/UTF8
Codec ID/Info : UTF-8 Plain Text
Duration : 2 h 12 min
Bit rate : 2 b/s
Count of elements : 77
Stream size : 2.20 KiB (0%)
Title : Forced
Language : Russian
Default : Yes
Forced : No
Text #2
ID : 6
Format : UTF-8
Codec ID : S_TEXT/UTF8
Codec ID/Info : UTF-8 Plain Text
Duration : 2 h 14 min
Bit rate : 64 b/s
Count of elements : 1460
Stream size : 63.8 KiB (0%)
Title : Full
Language : Russian
Default : No
Forced : No
Text #3
ID : 7
Format : UTF-8
Codec ID : S_TEXT/UTF8
Codec ID/Info : UTF-8 Plain Text
Duration : 2 h 14 min
Bit rate : 78 b/s
Count of elements : 1849
Stream size : 77.3 KiB (0%)
Title : SDH (iTunes)
Language : Russian
Default : No
Forced : No
Text #4
ID : 8
Format : UTF-8
Codec ID : S_TEXT/UTF8
Codec ID/Info : UTF-8 Plain Text
Duration : 2 h 14 min
Bit rate : 41 b/s
Count of elements : 1581
Stream size : 40.4 KiB (0%)
Title : Full
Language : English
Default : No
Forced : No
Text #5
ID : 9
Format : UTF-8
Codec ID : S_TEXT/UTF8
Codec ID/Info : UTF-8 Plain Text
Duration : 2 h 14 min
Bit rate : 47 b/s
Count of elements : 1835
Stream size : 47.1 KiB (0%)
Title : SDH
Language : English
Default : No
Forced : No
Text #6
ID : 10
Format : UTF-8
Codec ID : S_TEXT/UTF8
Codec ID/Info : UTF-8 Plain Text
Duration : 2 h 14 min
Bit rate : 66 b/s
Count of elements : 1834
Stream size : 65.1 KiB (0%)
Title : SDH Colored
Language : English
Default : No
Forced : No

[Цитировать]



Показать сообщения:    

Текущее время: 28-Май 05:28

Часовой пояс: UTC + 6


Вы не можете начинать темы
Вы не можете отвечать на сообщения
Вы не можете редактировать свои сообщения
Вы не можете удалять свои сообщения
Вы не можете голосовать в опросах
Вы не можете прикреплять файлы к сообщениям
Вы не можете скачивать файлы

!ВНИМАНИЕ!
Сайт не предоставляет электронные версии произведений, а занимается лишь коллекционированием и каталогизацией ссылок, присылаемых и публикуемых на форуме нашими читателями. Если вы являетесь правообладателем какого-либо представленного материала и не желаете, чтобы ссылка на него находилась в нашем каталоге, свяжитесь с нами, и мы незамедлительно удалим ее. Файлы для обмена на трекере предоставлены пользователями сайта, и администрация не несет ответственности за их содержание. Просьба не заливать файлы, защищенные авторскими правами, а также файлы нелегального содержания!