[ Сегодня идет свободное скачивание без начисления Download ]


Статистика раздачи
Скачал: [ 1 ]
 
   
 
 
 
 
Гордая Мэри / Proud Mary Информация о фильме
Название: Гордая Мэри
Оригинальное название: Proud Mary
Год выпуска: 2018
Страна: США
Жанр: Боевик, триллер, криминал
Перевод: Профессиональный многоголосый [iTunes]
Продолжительность: 01:29:02
Режиссер: Бабак Наджафи
В ролях: Тараджи П. Хенсон (Mary), Билли Браун (Tom), Джахи Диалло Уинстон (Danny), Нил МакДонаф (Walter), Маргарет Эйвери (Mina), Ксандер Беркли (Uncle), Раде Шербеджия (Luka), Эрик Ларей Харви (Reggie), Дэнни Гловер (Benny), Adobuere Ebiama (Woman), Оуэн Бурк (Jerome), Бо Клири (Benny's Guy / Tyson)
Описание:
У наёмной убийцы Мэри есть гордость и принципы, поэтому во время выполнения очередного задания она оставляет в живых сына-подростка жертвы, Дэнни. Год спустя парень занимается доставкой наркотиков для русской бандитской группировки Нью-Йорка. Ему приходится несладко, и после очередной порции побоев Дэнни приходит в себя в квартире Мэри. Весь год женщина терзалась чувством вины и теперь решила взять на себя заботу о сироте, но немного перестаралась - убила нескольких членов русской мафии, тем самым развязав войну между преступными группировками.
Мировая премьера: 12 января 2018

MPAA: R - Лицам до 17 лет обязательно присутствие взрослого
Качество: BDRip-AVC
Формат: MKV
Видео: AVC, 1024x428 (2.40:1), 1403 kbps, 23,976 fps, 0,134 bpp
Аудио: Русский / AC3 / 5.1 / 48 kHz / 384 kbps / ||
Навигация по главам: Есть

ОтчетМедиаИнфо

General
Unique ID : 208260858118420288263219692919723917921 (0x9CAD9510EB1E14A586E61AE8E78C0261)
Complete name : E:запись с твMost 2018.HDTV 1080p.R.G.GeneralfilmMost.s01.e04.2018.HDTV 1080p.by.White Smoke.R.G.Generalfilm.mkv
Format : Matroska
Format version : Version 2
File size : 2.42 GiB
Duration : 48 min
Overall bit rate mode : Constant
Overall bit rate : 7 204 kb/s
Movie name : Most.s01.e04.2018.HDTV 1080p.by.White Smoke.R.G.Generalfilm.mkv
Encoded date : UTC 2018-05-23 12:58:55
Writing application : mkvmerge v7.6.0 ('Garden of Dreams') 32bit built on Feb 11 2015 00:18:47
Writing library : libebml v1.3.1 + libmatroska v1.4.2
Video
ID : 1
Format : AVC
Format/Info : Advanced Video Codec
Format profile : High@L4.1
Format settings, CABAC : Yes
Format settings, ReFrames : 3 frames
Codec ID : V_MPEG4/ISO/AVC
Duration : 48 min
Bit rate mode : Constant
Bit rate : 7 051 kb/s
Width : 1 920 pixels
Height : 1 080 pixels
Display aspect ratio : 16:9
Frame rate mode : Constant
Frame rate : 25.000 FPS
Standard : PAL
Color space : YUV
Chroma subsampling : 4:2:0
Bit depth : 8 bits
Scan type : Progressive
Bits/(Pixel*Frame) : 0.136
Stream size : 2.30 GiB (95%)
Default : No
Forced : No
Color range : Limited
Color primaries : BT.709
Transfer characteristics : BT.709
Matrix coefficients : BT.709
Audio
ID : 2
Format : AC-3
Format/Info : Audio Coding 3
Mode extension : CM (complete main)
Format settings, Endianness : Big
Codec ID : A_AC3
Duration : 48 min
Bit rate mode : Constant
Bit rate : 192 kb/s
Channel(s) : 2 channels
Channel positions : Front: L R
Sampling rate : 48.0 kHz
Frame rate : 31.250 FPS (1536 spf)
Compression mode : Lossy
Stream size : 65.9 MiB (3%)
Default : Yes
Forced : No

Скриншоты

Релиз от:

[Цитировать]



Показать сообщения:    

Текущее время: 19-Авг 01:36

Часовой пояс: UTC + 6


Вы не можете начинать темы
Вы не можете отвечать на сообщения
Вы не можете редактировать свои сообщения
Вы не можете удалять свои сообщения
Вы не можете голосовать в опросах
Вы не можете прикреплять файлы к сообщениям
Вы не можете скачивать файлы

!ВНИМАНИЕ!
Сайт не предоставляет электронные версии произведений, а занимается лишь коллекционированием и каталогизацией ссылок, присылаемых и публикуемых на форуме нашими читателями. Если вы являетесь правообладателем какого-либо представленного материала и не желаете, чтобы ссылка на него находилась в нашем каталоге, свяжитесь с нами, и мы незамедлительно удалим ее. Файлы для обмена на трекере предоставлены пользователями сайта, и администрация не несет ответственности за их содержание. Просьба не заливать файлы, защищенные авторскими правами, а также файлы нелегального содержания!