[ Сегодня идет свободное скачивание без начисления Download ]


Статистика раздачи
Нет
 
   
 
 
 
 
Одни из последних / Last Ones Out (2016) WEBRip Информация о фильме
Название: Одни из последних
Оригинальное название: Last Ones Out
Год выпуска: 2016
Страна: ЮАР
Жанр: триллер, драма, приключения-Перевод: Любительский одноголосый [datynet]
Примечание: Релиз без рекламы
Продолжительность: 01:16:09-Режиссер: Говард Фиви / Howard Fyvie
В ролях: Кристина Виссер (Sunet), Грег Крик (Henry), Такс Тэд Лунгу (Prisoner Sandama), Tshamano Sebe (Siseko)-Описание:
Американец оказывается в Африке во время зомби-апокалипсиса, и теперь ему придётся доверится помощи трех таинственных незнакомцев, чтобы остаться в живых.-Рейтинг:
-Качество: WEBRip
Формат: AVI
Видео: XviD, 720x304 (2.35:1), 1842 kbps, 24 fps, 0,351 bpp
Аудио: MP3 / 2.0 / 48 kHz / 192 kbps /
Сэмпл-

ОтчетМедиаИнфо

General
Complete name : F:Last.Ones.Out.2016.WEBRip.VO.(datynet).avi
Format : AVI
Format/Info : Audio Video Interleave
File size : 1.09 GiB
Duration : 1 h 16 min
Overall bit rate : 2 041 kb/s
Writing application : VirtualDubModRus 1.5.10.2 (build 2542/release)
Writing library : VirtualDubMod build 2542/release
Video
ID : 0
Format : MPEG-4 Visual
Format profile : Advanced Simple@L5
Format settings, BVOP : 1
Format settings, QPel : No
Format settings, GMC : No warppoints
Format settings, Matrix : Custom
Codec ID : XVID
Codec ID/Hint : XviD
Duration : 1 h 16 min
Bit rate : 1 843 kb/s
Width : 720 pixels
Height : 304 pixels
Display aspect ratio : 2.35:1
Frame rate : 24.000 FPS
Color space : YUV
Chroma subsampling : 4:2:0
Bit depth : 8 bits
Scan type : Progressive
Compression mode : Lossy
Bits/(Pixel*Frame) : 0.351
Stream size : 1 004 MiB (90%)
Writing library : XviD 73
Audio
ID : 1
Format : MPEG Audio
Format version : Version 1
Format profile : Layer 3
Codec ID : 55
Codec ID/Hint : MP3
Duration : 1 h 16 min
Bit rate mode : Constant
Bit rate : 192 kb/s
Channel(s) : 2 channels
Sampling rate : 48.0 kHz
Compression mode : Lossy
Stream size : 105 MiB (9%)
Alignment : Aligned on interleaves
Interleave, duration : 167 ms (4.00 video frames)
Interleave, preload duration : 216 ms

Скриншоты

[Цитировать]



Показать сообщения:    

Текущее время: 13-Дек 02:35

Часовой пояс: UTC + 6


Вы не можете начинать темы
Вы не можете отвечать на сообщения
Вы не можете редактировать свои сообщения
Вы не можете удалять свои сообщения
Вы не можете голосовать в опросах
Вы не можете прикреплять файлы к сообщениям
Вы не можете скачивать файлы

!ВНИМАНИЕ!
Сайт не предоставляет электронные версии произведений, а занимается лишь коллекционированием и каталогизацией ссылок, присылаемых и публикуемых на форуме нашими читателями. Если вы являетесь правообладателем какого-либо представленного материала и не желаете, чтобы ссылка на него находилась в нашем каталоге, свяжитесь с нами, и мы незамедлительно удалим ее. Файлы для обмена на трекере предоставлены пользователями сайта, и администрация не несет ответственности за их содержание. Просьба не заливать файлы, защищенные авторскими правами, а также файлы нелегального содержания!