[ Сегодня идет свободное скачивание без начисления Download ]


Статистика раздачи
Качаю: [ 2 ]
Скачал: [ 6 ]
 
   
 
 
 
 
Дьявольские врата
Devil's Gate
- Информация
Производство: Канада, США / Caramel Film, Mednick Productions
Жанр: Ужасы, Триллер, Фантастика
Режиссер: Клэй Стауб
Актеры: Майло Вентимилья, Бриджет Риган, Аманда Шулл, Джонатан Фрейкс, Хавьер Ботет, Шон Эшмор, Адам Хертиг, Спенсер Древер, Скотт Джонсон, Уилл Войтович
Описание:
Агент ФБР Дарина Френсис расследует дело об исчезновении Марии Причард и её сына Джона. Главным подозреваемым становится супруг Марии Джексон Причард, о чем сообщила сестра пропавшей. И действительно, сложно его не заподозрить — мужчина обтянул забор колючей проволокой, заколотил окна, наставил вокруг капканов и прочих страшных ловушек, выглядит и ведёт себя как будто явно не в себе. Прибыв к дому Причардов за 50 миль от города и арестовав Джексона, агент Френсис вместе с местным полицейским Солтером становятся свидетелями странных явлений: все автомобили выходят из строя, телефоны не включаются, и вдруг начинается жуткая гроза. Похоже, им придется провести ночь в доме наедине с задержанным.


Дата мировой премьеры: 24 апреля 2017
Продолжительность: 01:34:14
Перевод: Профессиональный (многоголосый, закадровый) Jaskier
Файл
Качество видео: BDRip Сэмпл
Видео: AVC, 1920x802 (2.40:1), 23.976 fps, 10.9 Mbps
Аудио 1: AC-3, 48.0 KHz, 6 ch, 384 Kbps | Russian
Аудио 2: DTS, 48.0 KHz, 6 ch, 1509 Kbps | English
Субтитры: Английские

h.264 log:

x264 [info]: frame I:1043 Avg QP:12.64 size:201655
x264 [info]: frame P:27920 Avg QP:13.90 size: 98909
x264 [info]: frame B:106643 Avg QP:15.95 size: 44665

Mediainfo:

General
Complete name : \Дьявольские врата_Devil's Gate.2017.BDRip.1080p.NNMClub.mkv
Format : Matroska
Format version : Version 4 / Version 2
File size : 8.45 GiB
Duration : 1 h 34 min
Overall bit rate : 12.8 Mb/s
Movie name : Дьявольские врата_Devil's Gate.2017.BDRip.1080p.NNMClub
Encoded date : UTC 2018-06-13 07:03:19
Writing application : mkvmerge v18.0.0 ('Apricity') 64-bit
Writing library : libebml v1.3.5 + libmatroska v1.4.8
Video
ID : 1
Format : AVC
Format/Info : Advanced Video Codec
Format profile : High@L4.1
Format settings : CABAC / 4 Ref Frames
Format settings, CABAC : Yes
Format settings, ReFrames : 4 frames
Codec ID : V_MPEG4/ISO/AVC
Duration : 1 h 34 min
Bit rate : 10.9 Mb/s
Width : 1 920 pixels
Height : 802 pixels
Display aspect ratio : 2.40:1
Frame rate mode : Constant
Frame rate : 23.976 (24000/1001) FPS
Color space : YUV
Chroma subsampling : 4:2:0
Bit depth : 8 bits
Scan type : Progressive
Bits/(Pixel*Frame) : 0.296
Stream size : 7.20 GiB (85%)
Title : Дьявольские врата_Devil's Gate.2017.BDRip.1080p.NNMClub
Writing library : x264 core 155 r2867+82 a249126 t_mod_Custom_2 [8-bit@all X86_64]
Encoding settings : cabac=1 / ref=4 / deblock=1:-3:-3 / analyse=0x3:0x113 / me=umh / subme=10 / psy=1 / fade_compensate=0.00 / psy_rd=1.00:0.05 / mixed_ref=1 / me_range=48 / chroma_me=1 / trellis=2 / 8x8dct=1 / cqm=0 / deadzone=21,11 / fast_pskip=0 / chroma_qp_offset=-2 / threads=12 / lookahead_threads=2 / sliced_threads=0 / nr=0 / decimate=1 / interlaced=0 / bluray_compat=0 / constrained_intra=0 / fgo=0 / bframes=8 / b_pyramid=2 / b_adapt=2 / b_bias=0 / direct=3 / weightb=1 / open_gop=0 / weightp=2 / keyint=250 / keyint_min=23 / scenecut=40 / intra_refresh=0 / rc_lookahead=40 / rc=crf / mbtree=0 / crf=17.0000 / qcomp=0.60 / qpmin=0:0:0 / qpmax=69:69:69 / qpstep=4 / vbv_maxrate=50000 / vbv_bufsize=45000 / crf_max=0.0 / nal_hrd=none / filler=0 / ip_ratio=1.40 / pb_ratio=1.30 / aq=3:0.90 / aq-sensitivity=10.00 / aq-factor=1.00:1.00:1.00 / aq2=0 / aq3=0
Language : English
Default : Yes
Forced : No
Color range : Limited
Matrix coefficients : BT.709
Audio #1
ID : 2
Format : AC-3
Format/Info : Audio Coding 3
Codec ID : A_AC3
Duration : 1 h 34 min
Bit rate mode : Constant
Bit rate : 384 kb/s
Channel(s) : 6 channels
Channel positions : Front: L C R, Side: L R, LFE
Sampling rate : 48.0 kHz
Frame rate : 31.250 FPS (1536 SPF)
Bit depth : 16 bits
Compression mode : Lossy
Stream size : 259 MiB (3%)
Title : MVO (Jaskier)
Language : Russian
Service kind : Complete Main
Default : Yes
Forced : No
Audio #2
ID : 3
Format : DTS
Format/Info : Digital Theater Systems
Codec ID : A_DTS
Duration : 1 h 34 min
Bit rate mode : Constant
Bit rate : 1 509 kb/s
Channel(s) : 6 channels
Channel positions : Front: L C R, Side: L R, LFE
Sampling rate : 48.0 kHz
Frame rate : 93.750 FPS (512 SPF)
Bit depth : 24 bits
Compression mode : Lossy
Stream size : 1 017 MiB (12%)
Language : English
Default : No
Forced : No
Text
ID : 4
Format : UTF-8
Codec ID : S_TEXT/UTF8
Codec ID/Info : UTF-8 Plain Text
Duration : 1 h 25 min
Bit rate : 53 b/s
Count of elements : 861
Stream size : 33.6 KiB (0%)
Language : English
Default : No
Forced : No
Menu
00:00:00.000 : en:00:00:00.000
00:07:25.654 : en:00:07:25.654
00:16:18.728 : en:00:16:18.728
00:22:51.662 : en:00:22:51.662
00:29:32.771 : en:00:29:32.771
00:35:39.763 : en:00:35:39.763
00:43:16.928 : en:00:43:16.928
00:50:21.185 : en:00:50:21.185
00:57:24.941 : en:00:57:24.941
01:09:07.602 : en:01:09:07.602
01:16:25.122 : en:01:16:25.122
01:25:19.990 : en:01:25:19.990

Скриншоты

Скриншоты:

[Цитировать]



Показать сообщения:    

Текущее время: 22-Июн 11:25

Часовой пояс: UTC + 6


Вы не можете начинать темы
Вы не можете отвечать на сообщения
Вы не можете редактировать свои сообщения
Вы не можете удалять свои сообщения
Вы не можете голосовать в опросах
Вы не можете прикреплять файлы к сообщениям
Вы не можете скачивать файлы

!ВНИМАНИЕ!
Сайт не предоставляет электронные версии произведений, а занимается лишь коллекционированием и каталогизацией ссылок, присылаемых и публикуемых на форуме нашими читателями. Если вы являетесь правообладателем какого-либо представленного материала и не желаете, чтобы ссылка на него находилась в нашем каталоге, свяжитесь с нами, и мы незамедлительно удалим ее. Файлы для обмена на трекере предоставлены пользователями сайта, и администрация не несет ответственности за их содержание. Просьба не заливать файлы, защищенные авторскими правами, а также файлы нелегального содержания!