[ Сегодня идет свободное скачивание без начисления Download ]


Статистика раздачи
Качаю: [ 1 ]
 
   
 
 
 
 
Ярость
Fury

Информация о фильме
Название: Ярость
Оригинальное название: Fury
Год выпуска: 2014
Жанр: Боевик, военный
Выпущено: Великобритания, Китай, США, Columbia Pictures, QED International, LStar Capital
Режиссер: Дэвид Эйр
В ролях: Брэд Питт, Логан Лерман, Шайа ЛаБаф, Майкл Пенья, Джон Бернтал, Джейсон Айзекс, Джим Пэррак, Брэд Уильям Хенке, Кевин Вэнс, Ксавьер Сэмюэл, Анамария Маринка, Алисия фон Риттберг, Скотт Иствуд, Лоуренс Спэллман, Дэниэл Беттс, Адам Ганн, Эрик Кофи-Абрефа, Оси Окерафор, Джон Макмилла, Сол Барретт
Продолжительность: 02:14:38
Описание:
Апрель 1945 года, последние дни Второй мировой войны. Американская армия с тяжелыми боями продвигается в самое сердце Германии. Экипаж танка «Шерман» с написанным на стволе пушки словом «Ярость» получает задание удержать стратегически важный перекресток проселочных дорог. Для того чтобы выполнить приказ, пятерке отважных танкистов придется пройти через все круги кровавого ада.

Файл
Контейнер: MKV
Качество: BDRemux 2160p
Видео: HEVC, HDR, 53618 Кбит/с, 3840x2160, 23.976 Кадр/с
Аудио #1: AC-3, 48.0 kHz, 6 ch, 640 kb/s, CBR (Russian) | Дублированный |
Аудио #2: AC-3, 48.0 kHz, 6 ch, 640 kb/s, CBR (Ukrainian) | Дублированный |
Аудио #3: DTS MA, 48.0 kHz, 6 ch, 2 233 kb/s (Russian) | AVO, А. Гаврилов |
Аудио #4: DTS MA, 48.0 kHz, 6 ch, 2 240 kb/s (Russian) | AVO, Матвеев |
Аудио #5: TrueHD+Atmos, 48.0 kHz, 8 ch, 4 545 kb/s, (English) | Original |
Аудио #6: AC-3, 48.0 kHz, 6 ch, 640 kb/s, CBR (English) | Original, AC3 Core |
Аудио #7: DTS MA, 48.0 kHz, 6 ch, 2 217 kb/s (English) | Original, DTS MA |
Аудио #8: AC-3, 48.0 kHz, 6 ch, 640 kb/s, CBR (English) | Audiodeion |
Аудио #9: AC-3, 48.0 kHz, 6 ch, 640 kb/s, CBR (English) | Audiodeion |
Субтитры: Russian (forced, full) Ukrainian (forced) English (forced, full)

MI:

Общее
Уникальный идентификатор : 220888843682528836455877381329576684525 (0xA62DA4D2E3D42E266FE5845417366BED)
Полное имя : Fury.2014.UHD.BDRemux.2160p.4K.UltraHD.HEVC.HDR.IVA(3xRUS.UKR.ENG).ExKinoRay.mkv
Формат : Matroska
Версия формата : Version 4 / Version 2
Размер файла : 64,1 Гбайт
Продолжительность : 2 ч. 14 м.
Режим общего битрейта : Переменный
Общий поток : 68,1 Мбит/сек
Название фильма : Ярость / Fury ( 2014 ) UHD BDRemux | HDR, 4K | IVA(3xRUS.UKR.ENG) | ExKinoRay
Дата кодирования : UTC 2018-06-12 14:54:34
Программа кодирования : mkvmerge v24.0.0 ('Beyond The Pale') 64-bit
Библиотека кодирования : libebml v1.3.6 + libmatroska v1.4.9
Обложка : Yes
Attachments : cover
Видео
Идентификатор : 1
Формат : HEVC
Формат/Информация : High Efficiency Video Coding
Коммерческое название : HDR10
Профиль формата : Main 10@L5.1@High
Идентификатор кодека : V_MPEGH/ISO/HEVC
Продолжительность : 2 ч. 14 м.
Битрейт : 53,6 Мбит/сек
Ширина : 3840 пикселей
Высота : 2160 пикселей
Соотношение сторон : 16:9
Режим частоты кадров : Постоянный
Частота кадров : 23,976 (24000/1001) кадра/сек
Цветовое пространство : YUV
Субдискретизация насыщенности : 4:2:0 (Type 2)
Битовая глубина : 10 бит
Бит/(Пиксели*Кадры) : 0.270
Размер потока : 50,4 Гбайт (79%)
Заголовок : UHD.BDRemux.2160p.4K.UltraHD.HEVC.HDR
Язык : English
Default : Да
Forced : Нет
Цветовой диапазон : Limited
Основные цвета : BT.2020
Характеристики трансфера : PQ
Коэффициенты матрицы : BT.2020 non-constant
MasteringDisplay_Luminance : min: 0.0050 cd/m2, max: 4000 cd/m2
MaxCLL : 910 cd/m2
MaxFALL : 310 cd/m2
Аудио #1
Идентификатор : 2
Формат : AC-3
Формат/Информация : Audio Coding 3
Идентификатор кодека : A_AC3
Продолжительность : 2 ч. 14 м.
Вид битрейта : Постоянный
Битрейт : 640 Кбит/сек
Каналы : 6 каналов
Расположение каналов : Front: L C R, Side: L R, LFE
Частота : 48,0 КГц
Частота кадров : 31,250 кадров/сек (1536 SPF)
Битовая глубина : 16 бит
Метод сжатия : С потерями
Размер потока : 616 Мбайт (1%)
Заголовок : | Дублированный |
Язык : Russian
ServiceKind : Complete Main
Default : Да
Forced : Нет
Аудио #2
Идентификатор : 3
Формат : AC-3
Формат/Информация : Audio Coding 3
Идентификатор кодека : A_AC3
Продолжительность : 2 ч. 14 м.
Вид битрейта : Постоянный
Битрейт : 640 Кбит/сек
Каналы : 6 каналов
Расположение каналов : Front: L C R, Side: L R, LFE
Частота : 48,0 КГц
Частота кадров : 31,250 кадров/сек (1536 SPF)
Битовая глубина : 16 бит
Метод сжатия : С потерями
Размер потока : 616 Мбайт (1%)
Заголовок : | Дублированный |
Язык : Ukrainian
ServiceKind : Complete Main
Default : Нет
Forced : Нет
Аудио #3
Идентификатор : 4
Формат : DTS
Формат/Информация : Digital Theater Systems
Профиль формата : MA / Core
Идентификатор кодека : A_DTS
Продолжительность : 2 ч. 14 м.
Вид битрейта : Переменный / Постоянный
Битрейт : 2233 Кбит/сек / 1509 Кбит/сек
Каналы : 6 каналов
Расположение каналов : Front: L C R, Side: L R, LFE
Частота : 48,0 КГц
Частота кадров : 93,750 кадра/сек (512 SPF)
Битовая глубина : 16 бит
Метод сжатия : Без потерь / Lossy
Размер потока : 2,10 Гбайт (3%)
Заголовок : | AVO, А. Гаврилов |
Язык : Russian
Default : Нет
Forced : Нет
Аудио #4
Идентификатор : 5
Формат : DTS
Формат/Информация : Digital Theater Systems
Профиль формата : MA / Core
Идентификатор кодека : A_DTS
Продолжительность : 2 ч. 14 м.
Вид битрейта : Переменный / Постоянный
Битрейт : 2240 Кбит/сек / 1509 Кбит/сек
Каналы : 6 каналов
Расположение каналов : Front: L C R, Side: L R, LFE
Частота : 48,0 КГц
Частота кадров : 93,750 кадра/сек (512 SPF)
Битовая глубина : 16 бит
Метод сжатия : Без потерь / Lossy
Размер потока : 2,11 Гбайт (3%)
Заголовок : | AVO, Матвеев |
Язык : Russian
Default : Нет
Forced : Нет
Аудио #5
Идентификатор : 6
Формат : TrueHD
Профиль формата : TrueHD+Atmos / TrueHD
Идентификатор кодека : A_TRUEHD
Продолжительность : 2 ч. 14 м.
Вид битрейта : Переменный
Битрейт : 4545 Кбит/сек
Максимальный битрейт : 8409 Кбит/сек
Каналы : Object Based / 8 каналов
Расположение каналов : Object Based / Front: L C R, Side: L R, Back: L R, LFE
Частота : / 48,0 КГц
Частота кадров : 1200,000 кадров/сек (40 SPF)
Метод сжатия : Без потерь
Размер потока : 4,27 Гбайт (7%)
Заголовок : | Original |
Язык : English
Default : Нет
Forced : Нет
Аудио #6
Идентификатор : 7
Формат : AC-3
Формат/Информация : Audio Coding 3
Идентификатор кодека : A_AC3
Продолжительность : 2 ч. 14 м.
Вид битрейта : Постоянный
Битрейт : 640 Кбит/сек
Каналы : 6 каналов
Расположение каналов : Front: L C R, Side: L R, LFE
Частота : 48,0 КГц
Частота кадров : 31,250 кадров/сек (1536 SPF)
Битовая глубина : 16 бит
Метод сжатия : С потерями
Размер потока : 616 Мбайт (1%)
Заголовок : | Original, AC3 Core |
Язык : English
ServiceKind : Complete Main
Default : Нет
Forced : Нет
Аудио #7
Идентификатор : 8
Формат : DTS
Формат/Информация : Digital Theater Systems
Профиль формата : MA / Core
Идентификатор кодека : A_DTS
Продолжительность : 2 ч. 14 м.
Вид битрейта : Переменный / Постоянный
Битрейт : 2217 Кбит/сек / 1509 Кбит/сек
Каналы : 6 каналов
Расположение каналов : Front: L C R, Side: L R, LFE
Частота : 48,0 КГц
Частота кадров : 93,750 кадра/сек (512 SPF)
Битовая глубина : 16 бит
Метод сжатия : Без потерь / Lossy
Размер потока : 2,09 Гбайт (3%)
Заголовок : | Original, DTS MA |
Язык : English
Default : Нет
Forced : Нет
Аудио #8
Идентификатор : 9
Формат : AC-3
Формат/Информация : Audio Coding 3
Идентификатор кодека : A_AC3
Продолжительность : 2 ч. 14 м.
Вид битрейта : Постоянный
Битрейт : 640 Кбит/сек
Каналы : 6 каналов
Расположение каналов : Front: L C R, Side: L R, LFE
Частота : 48,0 КГц
Частота кадров : 31,250 кадров/сек (1536 SPF)
Битовая глубина : 16 бит
Метод сжатия : С потерями
Размер потока : 616 Мбайт (1%)
Заголовок : | Audiodeion |
Язык : English
ServiceKind : Complete Main
Default : Нет
Forced : Нет
Аудио #9
Идентификатор : 10
Формат : AC-3
Формат/Информация : Audio Coding 3
Идентификатор кодека : A_AC3
Продолжительность : 2 ч. 14 м.
Вид битрейта : Постоянный
Битрейт : 640 Кбит/сек
Каналы : 6 каналов
Расположение каналов : Front: L C R, Side: L R, LFE
Частота : 48,0 КГц
Частота кадров : 31,250 кадров/сек (1536 SPF)
Битовая глубина : 16 бит
Метод сжатия : С потерями
Размер потока : 616 Мбайт (1%)
Заголовок : | Audiodeion |
Язык : English
ServiceKind : Complete Main
Default : Нет
Forced : Нет
Текст #1
Идентификатор : 11
Формат : UTF-8
Идентификатор кодека : S_TEXT/UTF8
Идентификатор кодека/Информация : UTF-8 Plain Text
Продолжительность : 1 ч. 53 м.
Битрейт : 3 бит/сек
ElementCount : 87
Размер потока : 3,08 Кбайт (0%)
Заголовок : Forced
Язык : Russian
Default : Да
Forced : Да
Текст #2
Идентификатор : 12
Формат : UTF-8
Идентификатор кодека : S_TEXT/UTF8
Идентификатор кодека/Информация : UTF-8 Plain Text
Продолжительность : 2 ч. 6 м.
Битрейт : 70 бит/сек
ElementCount : 1480
Размер потока : 66,0 Кбайт (0%)
Заголовок : Full
Язык : Russian
Default : Нет
Forced : Нет
Текст #3
Идентификатор : 13
Формат : UTF-8
Идентификатор кодека : S_TEXT/UTF8
Идентификатор кодека/Информация : UTF-8 Plain Text
Продолжительность : 1 ч. 36 м.
Битрейт : 3 бит/сек
ElementCount : 77
Размер потока : 2,35 Кбайт (0%)
Заголовок : Forced
Язык : Ukrainian
Default : Нет
Forced : Да
Текст #4
Идентификатор : 14
Формат : UTF-8
Идентификатор кодека : S_TEXT/UTF8
Идентификатор кодека/Информация : UTF-8 Plain Text
Продолжительность : 1 ч. 36 м.
Битрейт : 1 бит/сек
ElementCount : 77
Размер потока : 1,28 Кбайт (0%)
Заголовок : Forced
Язык : English
Default : Нет
Forced : Да
Текст #5
Идентификатор : 15
Формат : UTF-8
Идентификатор кодека : S_TEXT/UTF8
Идентификатор кодека/Информация : UTF-8 Plain Text
Продолжительность : 2 ч. 3 м.
Битрейт : 45 бит/сек
ElementCount : 1469
Размер потока : 41,7 Кбайт (0%)
Заголовок : Full
Язык : English
Default : Нет
Forced : Нет
Меню
00:00:00.000 : :Chapter 01
00:07:58.227 : :Chapter 02
00:20:24.681 : :Chapter 03
00:26:38.930 : :Chapter 04
00:37:26.035 : :Chapter 05
00:43:24.059 : :Chapter 06
00:51:59.407 : :Chapter 07
01:01:20.301 : :Chapter 08
01:13:46.547 : :Chapter 09
01:18:29.705 : :Chapter 10
01:26:21.801 : :Chapter 11
01:29:50.426 : :Chapter 12
01:35:39.191 : :Chapter 13
01:48:12.110 : :Chapter 14
01:57:49.979 : :Chapter 15
02:00:41.609 : :Chapter 16

[Цитировать]



Показать сообщения:    

Текущее время: 20-Июн 15:29

Часовой пояс: UTC + 6


Вы не можете начинать темы
Вы не можете отвечать на сообщения
Вы не можете редактировать свои сообщения
Вы не можете удалять свои сообщения
Вы не можете голосовать в опросах
Вы не можете прикреплять файлы к сообщениям
Вы не можете скачивать файлы

!ВНИМАНИЕ!
Сайт не предоставляет электронные версии произведений, а занимается лишь коллекционированием и каталогизацией ссылок, присылаемых и публикуемых на форуме нашими читателями. Если вы являетесь правообладателем какого-либо представленного материала и не желаете, чтобы ссылка на него находилась в нашем каталоге, свяжитесь с нами, и мы незамедлительно удалим ее. Файлы для обмена на трекере предоставлены пользователями сайта, и администрация не несет ответственности за их содержание. Просьба не заливать файлы, защищенные авторскими правами, а также файлы нелегального содержания!