[ Сегодня идет свободное скачивание без начисления Download ]


Статистика раздачи
Нет
 
   
 
 
 
 
Форрест Гамп
Forrest Gump

«Мир уже никогда не будет прежним, после того как вы увидите его глазами Форреста Гампа»
Информация о фильме
Название: Форрест Гамп
Оригинальное название: Forrest Gump
Год выпуска: 1994
Жанр: Драма, мелодрама
Выпущено: США, Paramount Pictures
Режиссер: Роберт Земекис
В ролях: Том Хэнкс, Робин Райт, Гэри Синиз, Майкелти Уильямсон, Салли Филд, Ребекка Уильямс, Майкл Коннер Хэмпфри, Хейли Джоэл Осмент, Харольд Дж. Хертэм, Джордж Келли, Боб Пенни, Джон Рэндолл, Сэм Андерсон, Марго Мурер, Иона М. Телек, Кристин Сибрук, Питер Добсон, Шиван Фэллон, Александр Земекис, Логан Ливингстон Гомез, Бен Ваддель, Элизабет Хэнкс, Ханна Р. Холл, Тайлер Лонг, Кристофер Джонс, Грэйди Боуман, Кевин Мэнгэн, Фэй Гененс, Фрэнк Гейер, Роб Ландри, Джейсон МакГуайр, Пит Остер, Сонни Шроер, Бретт Райс, Эд Дэвис, Дэниэл С. Стрипик, Брюс Луквиа, Дэвид Брисбин, Кирк Уорд, Анджела Ломас, Тимоти Рекорд, Дебора МакТир, Марк Матисен, Аль Харингтон, Джед Гиллин, Боб Харкс
Продолжительность: 02:22:00
Описание:
От лица главного героя Форреста Гампа, слабоумного безобидного человека с благородным и открытым сердцем, рассказывается история его необыкновенной жизни. Фантастическим образом превращается он в известного футболиста, героя войны, преуспевающего бизнесмена. Он становится миллиардером, но остается таким же бесхитростным, глупым и добрым. Форреста ждет постоянный успех во всем, а он любит девочку, с которой дружил в детстве, но взаимность приходит слишком поздно.

Файл
Контейнер: MKV
Качество: BDRemux 2160p
Видео: HEVC, 3840x2160 (16:9), 23.976 fps, 66.3 Mb/s (0.334 bit/pixel)
Аудио #01: DTS MA, 48.0 kHz, 6 ch, 3 840 kb/s (Russian) | MVO, Позитив-мультимедиа |
Аудио #02: DTS MA, 48.0 kHz, 6 ch, 3 840 kb/s (Russian) | MVO, Тайкун |
Аудио #03: AC-3, 48.0 kHz, 6 ch, 448 kb/s, CBR (Russian) | MVO, FDV / Киномания |
Аудио #04: AC-3, 48.0 kHz, 6 ch, 640 kb/s, CBR (Russian) | MVO, Медиа-Комплекс |
Аудио #05: AC-3, 48.0 kHz, 6 ch, 384 kb/s, CBR (Russian) | MVO, НТВ |
Аудио #06: AC-3, 48.0 kHz, 6 ch, 448 kb/s, CBR (Russian) | MVO |
Аудио #07: AC-3, 48.0 kHz, 6 ch, 448 kb/s, CBR (Russian) | MVO, Universal Pictures |
Аудио #08: AC-3, 48.0 kHz, 2 ch, 192 kb/s, CBR (Russian) | MVO, ПремьерВидео фильм |
Аудио #09: AC-3, 48.0 kHz, 2 ch, 224 kb/s, CBR (Russian) | MVO, СТС |
Аудио #10: AC-3, 48.0 kHz, 2 ch, 192 kb/s, CBR (Russian) | DVO |
Аудио #11: DTS MA, 48.0 kHz, 6 ch, 3 840 kb/s (Russian) | AVO, А. Гаврилов |
Аудио #12: DTS MA, 48.0 kHz, 6 ch, 3 840 kb/s (Russian) | AVO, Ю. Сербин |
Аудио #13: AC-3, 48.0 kHz, 2 ch, 192 kb/s, CBR (Russian) | AVO, Боровой |
Аудио #14: AC-3, 48.0 kHz, 2 ch, 192 kb/s, CBR (Russian) | AVO, Визгунов |
Аудио #15: AC-3, 48.0 kHz, 2 ch, 192 kb/s, CBR (Russian) | AVO, В. Горчаков |
Аудио #16: AC-3, 48.0 kHz, 2 ch, 192 kb/s, CBR (Russian) | AVO, А. Кашкин |
Аудио #17: AC-3, 48.0 kHz, 6 ch, 448 kb/s, CBR (Ukrainian) | MVO, Інтер |
Аудио #18: AC-3, 48.0 kHz, 2 ch, 192 kb/s, CBR (Russian) | VO, Комм. Роберта Земекиса, С.С., и Р. К. |
Аудио #19: AC-3, 48.0 kHz, 2 ch, 192 kb/s, CBR (Russian) | VO, Комм. Венди Файнерман |
Аудио #20: TrueHD+Atmos, 48.0 kHz, 8 ch, 4 271 kb/s, VBR (English) | Original |
Аудио #21: AC-3, 48.0 kHz, 6 ch, 640 kb/s, CBR (English) | Original, AC3 Core |
Аудио #22: AC-3, 48.0 kHz, 6 ch, 640 kb/s, CBR (English) | Audiodeion |
Аудио #23: AC-3, 48.0 kHz, 2 ch, 224 kb/s, CBR (English) | Comm. Robert Zemeckis, S.S. & R.C. |
Аудио #24: AC-3, 48.0 kHz, 2 ch, 224 kb/s, CBR (English) | Comm. Wendy Finerman |

MI:

Общее
Уникальный идентификатор : 28026131271879558353156812427841986562 (0x1515A2F48F44E5CE7929971FBA876002)
Полное имя : Forrest.Gump.1994.UHD.BDRemux.2160p.4K.UltraHD.HEVC.HDR.IVA(RUS.UKR.ENG).ExKinoRay.mkv
Формат : Matroska
Версия формата : Version 4 / Version 2
Размер файла : 91,9 Гбайт
Продолжительность : 2 ч. 22 м.
Режим общего битрейта : Переменный
Общий поток : 92,5 Мбит/сек
Название фильма : Форрест Гамп / Forrest Gump ( 1994 ) UHD BDRemux | HDR, 4K | IVA(RUS.UKR.ENG) | ExKinoRay
Дата кодирования : UTC 2018-06-11 15:44:24
Программа кодирования : mkvmerge v24.0.0 ('Beyond The Pale') 64-bit
Библиотека кодирования : libebml v1.3.6 + libmatroska v1.4.9
Обложка : Yes
Attachments : cover
Видео
Идентификатор : 1
Формат : HEVC
Формат/Информация : High Efficiency Video Coding
Коммерческое название : HDR10
Профиль формата : Main 10@L5.1@High
Идентификатор кодека : V_MPEGH/ISO/HEVC
Продолжительность : 2 ч. 22 м.
Битрейт : 66,3 Мбит/сек
Ширина : 3840 пикселей
Высота : 2160 пикселей
Соотношение сторон : 16:9
Режим частоты кадров : Постоянный
Частота кадров : 23,976 (24000/1001) кадра/сек
Цветовое пространство : YUV
Субдискретизация насыщенности : 4:2:0 (Type 2)
Битовая глубина : 10 бит
Бит/(Пиксели*Кадры) : 0.334
Размер потока : 65,9 Гбайт (72%)
Заголовок : UHD.BDRemux.2160p.4K.UltraHD.HEVC.HDR
Язык : English
Default : Да
Forced : Нет
Цветовой диапазон : Limited
Основные цвета : BT.2020
Характеристики трансфера : PQ
Коэффициенты матрицы : BT.2020 non-constant
MasteringDisplay_Luminance : min: 0.0001 cd/m2, max: 1000 cd/m2
Аудио #1
Идентификатор : 2
Формат : DTS
Формат/Информация : Digital Theater Systems
Профиль формата : MA / Core
Идентификатор кодека : A_DTS
Продолжительность : 2 ч. 22 м.
Вид битрейта : Переменный / Постоянный
Битрейт : 3840 Кбит/сек / 1509 Кбит/сек
Каналы : 6 каналов
Расположение каналов : Front: L C R, Side: L R, LFE
Частота : 48,0 КГц
Частота кадров : 93,750 кадра/сек (512 SPF)
Битовая глубина : 24 бит
Метод сжатия : Без потерь / Lossy
Размер потока : 3,86 Гбайт (4%)
Заголовок : | MVO, Позитив-мультимедиа |
Язык : Russian
Default : Да
Forced : Нет
Аудио #2
Идентификатор : 3
Формат : DTS
Формат/Информация : Digital Theater Systems
Профиль формата : MA / Core
Идентификатор кодека : A_DTS
Продолжительность : 2 ч. 22 м.
Вид битрейта : Переменный / Постоянный
Битрейт : 3840 Кбит/сек / 1509 Кбит/сек
Каналы : 6 каналов
Расположение каналов : Front: L C R, Side: L R, LFE
Частота : 48,0 КГц
Частота кадров : 93,750 кадра/сек (512 SPF)
Битовая глубина : 24 бит
Метод сжатия : Без потерь / Lossy
Размер потока : 3,86 Гбайт (4%)
Заголовок : | MVO, Тайкун |
Язык : Russian
Default : Нет
Forced : Нет
Аудио #3
Идентификатор : 4
Формат : AC-3
Формат/Информация : Audio Coding 3
Идентификатор кодека : A_AC3
Продолжительность : 2 ч. 22 м.
Вид битрейта : Постоянный
Битрейт : 448 Кбит/сек
Каналы : 6 каналов
Расположение каналов : Front: L C R, Side: L R, LFE
Частота : 48,0 КГц
Частота кадров : 31,250 кадров/сек (1536 SPF)
Битовая глубина : 16 бит
Метод сжатия : С потерями
Размер потока : 455 Мбайт (0%)
Заголовок : | MVO, FDV / Киномания |
Язык : Russian
ServiceKind : Complete Main
Default : Нет
Forced : Нет
Аудио #4
Идентификатор : 5
Формат : AC-3
Формат/Информация : Audio Coding 3
Идентификатор кодека : A_AC3
Продолжительность : 2 ч. 22 м.
Вид битрейта : Постоянный
Битрейт : 640 Кбит/сек
Каналы : 6 каналов
Расположение каналов : Front: L C R, Side: L R, LFE
Частота : 48,0 КГц
Частота кадров : 31,250 кадров/сек (1536 SPF)
Битовая глубина : 16 бит
Метод сжатия : С потерями
Размер потока : 651 Мбайт (1%)
Заголовок : | MVO, Медиа-Комплекс |
Язык : Russian
ServiceKind : Complete Main
Default : Нет
Forced : Нет
Аудио #5
Идентификатор : 6
Формат : AC-3
Формат/Информация : Audio Coding 3
Идентификатор кодека : A_AC3
Продолжительность : 2 ч. 21 м.
Вид битрейта : Постоянный
Битрейт : 384 Кбит/сек
Каналы : 6 каналов
Расположение каналов : Front: L C R, Side: L R, LFE
Частота : 48,0 КГц
Частота кадров : 31,250 кадров/сек (1536 SPF)
Битовая глубина : 16 бит
Метод сжатия : С потерями
Размер потока : 389 Мбайт (0%)
Заголовок : | MVO, НТВ |
Язык : Russian
ServiceKind : Complete Main
Default : Нет
Forced : Нет
Аудио #6
Идентификатор : 7
Формат : AC-3
Формат/Информация : Audio Coding 3
Идентификатор кодека : A_AC3
Продолжительность : 2 ч. 22 м.
Вид битрейта : Постоянный
Битрейт : 448 Кбит/сек
Каналы : 6 каналов
Расположение каналов : Front: L C R, Side: L R, LFE
Частота : 48,0 КГц
Частота кадров : 31,250 кадров/сек (1536 SPF)
Битовая глубина : 16 бит
Метод сжатия : С потерями
Размер потока : 456 Мбайт (0%)
Заголовок : | MVO |
Язык : Russian
ServiceKind : Complete Main
Default : Нет
Forced : Нет
Аудио #7
Идентификатор : 8
Формат : AC-3
Формат/Информация : Audio Coding 3
Идентификатор кодека : A_AC3
Продолжительность : 2 ч. 22 м.
Вид битрейта : Постоянный
Битрейт : 448 Кбит/сек
Каналы : 6 каналов
Расположение каналов : Front: L C R, Side: L R, LFE
Частота : 48,0 КГц
Частота кадров : 31,250 кадров/сек (1536 SPF)
Битовая глубина : 16 бит
Метод сжатия : С потерями
Размер потока : 456 Мбайт (0%)
Заголовок : | MVO, Universal Pictures |
Язык : Russian
ServiceKind : Complete Main
Default : Нет
Forced : Нет
Аудио #8
Идентификатор : 9
Формат : AC-3
Формат/Информация : Audio Coding 3
Идентификатор кодека : A_AC3
Продолжительность : 2 ч. 22 м.
Вид битрейта : Постоянный
Битрейт : 192 Кбит/сек
Каналы : 2 канала
Расположение каналов : Front: L R
Частота : 48,0 КГц
Частота кадров : 31,250 кадров/сек (1536 SPF)
Битовая глубина : 16 бит
Метод сжатия : С потерями
Размер потока : 195 Мбайт (0%)
Заголовок : | MVO, ПремьерВидео фильм |
Язык : Russian
ServiceKind : Complete Main
Default : Нет
Forced : Нет
Аудио #9
Идентификатор : 10
Формат : AC-3
Формат/Информация : Audio Coding 3
Идентификатор кодека : A_AC3
Продолжительность : 2 ч. 22 м.
Вид битрейта : Постоянный
Битрейт : 224 Кбит/сек
Каналы : 2 канала
Расположение каналов : Front: L R
Частота : 48,0 КГц
Частота кадров : 31,250 кадров/сек (1536 SPF)
Битовая глубина : 16 бит
Метод сжатия : С потерями
Размер потока : 228 Мбайт (0%)
Заголовок : | MVO, СТС |
Язык : Russian
ServiceKind : Complete Main
Default : Нет
Forced : Нет
Аудио #10
Идентификатор : 11
Формат : AC-3
Формат/Информация : Audio Coding 3
Идентификатор кодека : A_AC3
Продолжительность : 2 ч. 22 м.
Вид битрейта : Постоянный
Битрейт : 192 Кбит/сек
Каналы : 2 канала
Расположение каналов : Front: L R
Частота : 48,0 КГц
Частота кадров : 31,250 кадров/сек (1536 SPF)
Битовая глубина : 16 бит
Метод сжатия : С потерями
Размер потока : 195 Мбайт (0%)
Заголовок : | DVO |
Язык : Russian
ServiceKind : Complete Main
Default : Нет
Forced : Нет
Аудио #11
Идентификатор : 12
Формат : DTS
Формат/Информация : Digital Theater Systems
Профиль формата : MA / Core
Идентификатор кодека : A_DTS
Продолжительность : 2 ч. 22 м.
Вид битрейта : Переменный / Постоянный
Битрейт : 3840 Кбит/сек / 1509 Кбит/сек
Каналы : 6 каналов
Расположение каналов : Front: L C R, Side: L R, LFE
Частота : 48,0 КГц
Частота кадров : 93,750 кадра/сек (512 SPF)
Битовая глубина : 24 бит
Метод сжатия : Без потерь / Lossy
Размер потока : 3,85 Гбайт (4%)
Заголовок : | AVO, А. Гаврилов |
Язык : Russian
Default : Нет
Forced : Нет
Аудио #12
Идентификатор : 13
Формат : DTS
Формат/Информация : Digital Theater Systems
Профиль формата : MA / Core
Идентификатор кодека : A_DTS
Продолжительность : 2 ч. 22 м.
Вид битрейта : Переменный / Постоянный
Битрейт : 3840 Кбит/сек / 1509 Кбит/сек
Каналы : 6 каналов
Расположение каналов : Front: L C R, Side: L R, LFE
Частота : 48,0 КГц
Частота кадров : 93,750 кадра/сек (512 SPF)
Битовая глубина : 24 бит
Метод сжатия : Без потерь / Lossy
Размер потока : 3,87 Гбайт (4%)
Заголовок : | AVO, Ю. Сербин |
Язык : Russian
Default : Нет
Forced : Нет
Аудио #13
Идентификатор : 14
Формат : AC-3
Формат/Информация : Audio Coding 3
Идентификатор кодека : A_AC3
Продолжительность : 2 ч. 22 м.
Вид битрейта : Постоянный
Битрейт : 192 Кбит/сек
Каналы : 2 канала
Расположение каналов : Front: L R
Частота : 48,0 КГц
Частота кадров : 31,250 кадров/сек (1536 SPF)
Битовая глубина : 16 бит
Метод сжатия : С потерями
Размер потока : 195 Мбайт (0%)
Заголовок : | AVO, Боровой |
Язык : Russian
ServiceKind : Complete Main
Default : Нет
Forced : Нет
Аудио #14
Идентификатор : 15
Формат : AC-3
Формат/Информация : Audio Coding 3
Идентификатор кодека : A_AC3
Продолжительность : 2 ч. 22 м.
Вид битрейта : Постоянный
Битрейт : 192 Кбит/сек
Каналы : 2 канала
Расположение каналов : Front: L R
Частота : 48,0 КГц
Частота кадров : 31,250 кадров/сек (1536 SPF)
Битовая глубина : 16 бит
Метод сжатия : С потерями
Размер потока : 195 Мбайт (0%)
Заголовок : | AVO, Визгунов |
Язык : Russian
ServiceKind : Complete Main
Default : Нет
Forced : Нет
Аудио #15
Идентификатор : 16
Формат : AC-3
Формат/Информация : Audio Coding 3
Идентификатор кодека : A_AC3
Продолжительность : 2 ч. 22 м.
Вид битрейта : Постоянный
Битрейт : 192 Кбит/сек
Каналы : 2 канала
Расположение каналов : Front: L R
Частота : 48,0 КГц
Частота кадров : 31,250 кадров/сек (1536 SPF)
Битовая глубина : 16 бит
Метод сжатия : С потерями
Размер потока : 195 Мбайт (0%)
Заголовок : | AVO, В. Горчаков |
Язык : Russian
ServiceKind : Complete Main
Default : Нет
Forced : Нет
Аудио #16
Идентификатор : 17
Формат : AC-3
Формат/Информация : Audio Coding 3
Идентификатор кодека : A_AC3
Продолжительность : 2 ч. 22 м.
Вид битрейта : Постоянный
Битрейт : 192 Кбит/сек
Каналы : 2 канала
Расположение каналов : Front: L R
Частота : 48,0 КГц
Частота кадров : 31,250 кадров/сек (1536 SPF)
Битовая глубина : 16 бит
Метод сжатия : С потерями
Размер потока : 195 Мбайт (0%)
Заголовок : | AVO, А. Кашкин |
Язык : Russian
ServiceKind : Complete Main
Default : Нет
Forced : Нет
Аудио #17
Идентификатор : 18
Формат : AC-3
Формат/Информация : Audio Coding 3
Идентификатор кодека : A_AC3
Продолжительность : 2 ч. 19 м.
Вид битрейта : Постоянный
Битрейт : 448 Кбит/сек
Каналы : 6 каналов
Расположение каналов : Front: L C R, Side: L R, LFE
Частота : 48,0 КГц
Частота кадров : 31,250 кадров/сек (1536 SPF)
Битовая глубина : 16 бит
Метод сжатия : С потерями
Размер потока : 448 Мбайт (0%)
Заголовок : | MVO, Інтер |
Язык : Ukrainian
ServiceKind : Complete Main
Default : Нет
Forced : Нет
Аудио #18
Идентификатор : 19
Формат : AC-3
Формат/Информация : Audio Coding 3
Идентификатор кодека : A_AC3
Продолжительность : 2 ч. 22 м.
Вид битрейта : Постоянный
Битрейт : 192 Кбит/сек
Каналы : 2 канала
Расположение каналов : Front: L R
Частота : 48,0 КГц
Частота кадров : 31,250 кадров/сек (1536 SPF)
Битовая глубина : 16 бит
Метод сжатия : С потерями
Размер потока : 195 Мбайт (0%)
Заголовок : | VO, Комм. Роберта Земекиса, С.С., и Р. К. |
Язык : Russian
ServiceKind : Complete Main
Default : Нет
Forced : Нет
Аудио #19
Идентификатор : 20
Формат : AC-3
Формат/Информация : Audio Coding 3
Идентификатор кодека : A_AC3
Продолжительность : 2 ч. 22 м.
Вид битрейта : Постоянный
Битрейт : 192 Кбит/сек
Каналы : 2 канала
Расположение каналов : Front: L R
Частота : 48,0 КГц
Частота кадров : 31,250 кадров/сек (1536 SPF)
Битовая глубина : 16 бит
Метод сжатия : С потерями
Размер потока : 195 Мбайт (0%)
Заголовок : | VO, Комм. Венди Файнерман |
Язык : Russian
ServiceKind : Complete Main
Default : Нет
Forced : Нет
Аудио #20
Идентификатор : 21
Формат : TrueHD
Профиль формата : TrueHD+Atmos / TrueHD
Идентификатор кодека : A_TRUEHD
Продолжительность : 2 ч. 22 м.
Вид битрейта : Переменный
Битрейт : 4271 Кбит/сек
Максимальный битрейт : 7926 Кбит/сек
Каналы : Object Based / 8 каналов
Расположение каналов : Object Based / Front: L C R, Side: L R, Back: L R, LFE
Частота : / 48,0 КГц
Частота кадров : 1200,000 кадров/сек (40 SPF)
Метод сжатия : Без потерь
Задержка видео : 501 мс.
Размер потока : 4,24 Гбайт (5%)
Заголовок : | Original |
Язык : English
Default : Нет
Forced : Нет
Аудио #21
Идентификатор : 22
Формат : AC-3
Формат/Информация : Audio Coding 3
Идентификатор кодека : A_AC3
Продолжительность : 2 ч. 22 м.
Вид битрейта : Постоянный
Битрейт : 640 Кбит/сек
Каналы : 6 каналов
Расположение каналов : Front: L C R, Side: L R, LFE
Частота : 48,0 КГц
Частота кадров : 31,250 кадров/сек (1536 SPF)
Битовая глубина : 16 бит
Метод сжатия : С потерями
Задержка видео : 501 мс.
Размер потока : 651 Мбайт (1%)
Заголовок : | Original, AC3 Core |
Язык : English
ServiceKind : Complete Main
Default : Нет
Forced : Нет
Аудио #22
Идентификатор : 23
Формат : AC-3
Формат/Информация : Audio Coding 3
Идентификатор кодека : A_AC3
Продолжительность : 2 ч. 22 м.
Вид битрейта : Постоянный
Битрейт : 640 Кбит/сек
Каналы : 6 каналов
Расположение каналов : Front: L C R, Side: L R, LFE
Частота : 48,0 КГц
Частота кадров : 31,250 кадров/сек (1536 SPF)
Битовая глубина : 16 бит
Метод сжатия : С потерями
Задержка видео : 501 мс.
Размер потока : 651 Мбайт (1%)
Заголовок : | Audiodeion |
Язык : English
ServiceKind : Complete Main
Default : Нет
Forced : Нет
Аудио #23
Идентификатор : 24
Формат : AC-3
Формат/Информация : Audio Coding 3
Идентификатор кодека : A_AC3
Продолжительность : 2 ч. 22 м.
Вид битрейта : Постоянный
Битрейт : 224 Кбит/сек
Каналы : 2 канала
Расположение каналов : Front: L R
Частота : 48,0 КГц
Частота кадров : 31,250 кадров/сек (1536 SPF)
Битовая глубина : 16 бит
Метод сжатия : С потерями
Размер потока : 228 Мбайт (0%)
Заголовок : | Comm. Robert Zemeckis, S.S. & R.C. |
Язык : English
ServiceKind : Complete Main
Default : Нет
Forced : Нет
Аудио #24
Идентификатор : 25
Формат : AC-3
Формат/Информация : Audio Coding 3
Идентификатор кодека : A_AC3
Продолжительность : 2 ч. 22 м.
Вид битрейта : Постоянный
Битрейт : 224 Кбит/сек
Каналы : 2 канала
Расположение каналов : Front: L R
Частота : 48,0 КГц
Частота кадров : 31,250 кадров/сек (1536 SPF)
Битовая глубина : 16 бит
Метод сжатия : С потерями
Размер потока : 228 Мбайт (0%)
Заголовок : | Comm. Wendy Finerman |
Язык : English
ServiceKind : Complete Main
Default : Нет
Forced : Нет
Текст #1
Идентификатор : 26
Формат : UTF-8
Идентификатор кодека : S_TEXT/UTF8
Идентификатор кодека/Информация : UTF-8 Plain Text
Продолжительность : 2 ч. 13 м.
Битрейт : 98 бит/сек
ElementCount : 1573
Размер потока : 96,6 Кбайт (0%)
Заголовок : Full Позитив-Мультимедия
Язык : Russian
Default : Нет
Forced : Нет
Текст #2
Идентификатор : 27
Формат : UTF-8
Идентификатор кодека : S_TEXT/UTF8
Идентификатор кодека/Информация : UTF-8 Plain Text
Продолжительность : 2 ч. 10 м.
Битрейт : 98 бит/сек
ElementCount : 1989
Размер потока : 94,3 Кбайт (0%)
Заголовок : Full
Язык : Russian
Default : Нет
Forced : Нет
Текст #3
Идентификатор : 28
Формат : UTF-8
Идентификатор кодека : S_TEXT/UTF8
Идентификатор кодека/Информация : UTF-8 Plain Text
Продолжительность : 2 ч. 13 м.
Битрейт : 76 бит/сек
ElementCount : 1333
Размер потока : 74,4 Кбайт (0%)
Заголовок : Full
Язык : Ukrainian
Default : Нет
Forced : Нет
Текст #4
Идентификатор : 29
Формат : UTF-8
Идентификатор кодека : S_TEXT/UTF8
Идентификатор кодека/Информация : UTF-8 Plain Text
Продолжительность : 2 ч. 10 м.
Битрейт : 63 бит/сек
ElementCount : 1542
Размер потока : 60,9 Кбайт (0%)
Заголовок : Full
Язык : English
Default : Нет
Forced : Нет
Текст #5
Идентификатор : 30
Формат : UTF-8
Идентификатор кодека : S_TEXT/UTF8
Идентификатор кодека/Информация : UTF-8 Plain Text
Продолжительность : 2 ч. 11 м.
Битрейт : 65 бит/сек
ElementCount : 1595
Размер потока : 62,9 Кбайт (0%)
Заголовок : SDH
Язык : English
Default : Нет
Forced : Нет
Текст #6
Идентификатор : 31
Формат : UTF-8
Идентификатор кодека : S_TEXT/UTF8
Идентификатор кодека/Информация : UTF-8 Plain Text
Продолжительность : 2 ч. 17 м.
Битрейт : 126 бит/сек
ElementCount : 1526
Размер потока : 127 Кбайт (0%)
Заголовок : Комментарии №1
Язык : Russian
Default : Нет
Forced : Нет
Текст #7
Идентификатор : 32
Формат : UTF-8
Идентификатор кодека : S_TEXT/UTF8
Идентификатор кодека/Информация : UTF-8 Plain Text
Продолжительность : 2 ч. 15 м.
Битрейт : 61 бит/сек
ElementCount : 712
Размер потока : 61,5 Кбайт (0%)
Заголовок : Комментарии №2
Язык : Russian
Default : Нет
Forced : Нет
Текст #8
Идентификатор : 33
Формат : UTF-8
Идентификатор кодека : S_TEXT/UTF8
Идентификатор кодека/Информация : UTF-8 Plain Text
Продолжительность : 2 ч. 17 м.
Битрейт : 82 бит/сек
ElementCount : 1643
Размер потока : 82,4 Кбайт (0%)
Заголовок : Commentary №1
Язык : English
Default : Нет
Forced : Нет
Текст #9
Идентификатор : 34
Формат : UTF-8
Идентификатор кодека : S_TEXT/UTF8
Идентификатор кодека/Информация : UTF-8 Plain Text
Продолжительность : 2 ч. 15 м.
Битрейт : 41 бит/сек
ElementCount : 821
Размер потока : 41,3 Кбайт (0%)
Заголовок : Commentary №2
Язык : English
Default : Нет
Forced : Нет
Меню
00:00:00.000 : en:I'm Forrest...Forrest Gump
00:06:43.570 : en:Mama
00:12:24.577 : en:Like Peas and Carrots
00:19:56.946 : en:Run Forrest Run!
00:31:13.705 : en:Private Gump
00:40:40.188 : en:Lieutenant Dan
00:44:18.114 : en:My Best Good Friend
00:56:34.474 : en:Wounded in the Buttocks
01:03:32.267 : en:You're My Girl
01:13:34.076 : en:National Celebrity
01:17:02.827 : en:Happy New Year
01:23:52.277 : en:Shrimp Boat Captain
01:34:59.944 : en:Bubba Gump
01:38:55.596 : en:Mamma's Trip to Heaven
01:43:52.893 : en:Jenny Comes Home
01:51:28.307 : en:A Little Run
01:58:54.711 : en:Forrest Meets Forrest
02:04:48.564 : en:Beloved Mother, Wife and Friend
02:15:25.200 : en:Credits

[Цитировать]



Показать сообщения:    

Текущее время: 22-Июн 11:14

Часовой пояс: UTC + 6


Вы не можете начинать темы
Вы не можете отвечать на сообщения
Вы не можете редактировать свои сообщения
Вы не можете удалять свои сообщения
Вы не можете голосовать в опросах
Вы не можете прикреплять файлы к сообщениям
Вы не можете скачивать файлы

!ВНИМАНИЕ!
Сайт не предоставляет электронные версии произведений, а занимается лишь коллекционированием и каталогизацией ссылок, присылаемых и публикуемых на форуме нашими читателями. Если вы являетесь правообладателем какого-либо представленного материала и не желаете, чтобы ссылка на него находилась в нашем каталоге, свяжитесь с нами, и мы незамедлительно удалим ее. Файлы для обмена на трекере предоставлены пользователями сайта, и администрация не несет ответственности за их содержание. Просьба не заливать файлы, защищенные авторскими правами, а также файлы нелегального содержания!