[ Сегодня идет свободное скачивание без начисления Download ]


Статистика раздачи
Нет
 
   
 
Top  
 
 
-Джек – покоритель великанов / Jack the Giant Slayer (2013) BDRip- Год выпуска: 2013
Производство: США
Жанр: Приключения, Фэнтези
Режиссер: Брайан Сингер
Продюсер: Дэвид Добкин, Ори Мармур, Патрик МакКормик
Актеры: Николас Холт, Элинор Томлинсон, Юэн МакГрегор, Стэнли Туччи, Эдди Марсан, Юэн Бремнер, Иэн МакШейн, Кристофер Фэйрбэнк, Саймон Лоу, Мингус Джонстон
Перевод: Дублированный [Чистый звук]
Субтитры: Вшитые отключаемые
Язык субтитров: Английский
Описание фильма: История начинается с похищения принцессы, что грозит нарушить хрупкий мир между людьми и великанами. Юный фермер возглавляет вылазку в царство гигантов в надежде спасти девушку.

Дата мировой премьеры: 27 февраля 2013
Дата российской премьеры: 21 марта 2013, «Каро-Премьер»
Дата выхода DVD релиза: 20 июня 2013, «CP Дистрибуция»
Продолжительность: 01:54:20
Качество видео: BDRip 1080p
Видеокодек: MPEG-4 AVC/H.264
Битрейт видео: ~8 066 Kbps
Размер кадра: 1920x800
Aудио #1: DTS, 48,0 КHz, 5.1, 1510 Kbit/s (Оригинальный английский)
Аудио #2: AC3, 44,1 КHz, 5.1, 448 Kbit/s (Русский дублированный)
Сэмпл: Скачать

MediaInfo

Общее
Unique ID : 176287818728621565441361225100091910429 (0x849FCC842FEA4A79973100DA0E52E91D)
Complete name : F:\Jack the Giant Slayer.2013.Dt.1080p.mkv
Format : Matroska
Format version : Version 2
File size : 8.00 Гбайт
Duration : 1 ч. 54 м.
Overall bit rate : 9701 Кбит/сек
Encoded date : UTC 2013-06-01 04:19:12
Writing application : mkvmerge v4.0.0 ('The Stars were mine') сборка от Jun 15 2010 16:50:23
Writing library : libebml v1.0.0 + libmatroska v1.0.0
Видео
ID : 1
Format : AVC
Format/Info : Advanced Video Codec
Format profile : High@L4.1
Format settings, CABAC : Да
Format settings, ReFrames : 5 кадров
Codec ID : V_MPEG4/ISO/AVC
Duration : 1 ч. 54 м.
Bit rate : 8066 Кбит/сек
Width : 1920 пикселей
Height : 800 пикселей
Display aspect ratio : 2,40:1
Frame rate mode : Постоянный
Frame rate : 23,976 кадра/сек
Color space : YUV
Chroma subsampling : 4:2:0
Bit depth : 8 бит
Scan type : Прогрессивная
Bits/(Pixel*Frame) : 0.219
Stream size : 6,29 Гбайт (81%)
Writing library : x264 core 133 r2334 a3ac64b
Encoding settings : cabac=1 / ref=5 / deblock=1:0:0 / analyse=0x3:0x133 / me=umh / subme=7 / psy=1 / psy_rd=1.00:0.00 / mixed_ref=1 / me_range=16 / chroma_me=1 / trellis=1 / 8x8dct=1 / cqm=0 / deadzone=21,11 / fast_pskip=0 / chroma_qp_offset=-2 / threads=18 / lookahead_threads=3 / sliced_threads=0 / nr=0 / decimate=1 / interlaced=0 / bluray_compat=0 / constrained_intra=0 / bframes=3 / b_pyramid=2 / b_adapt=1 / b_bias=0 / direct=1 / weightb=1 / open_gop=0 / weightp=2 / keyint=250 / keyint_min=23 / scenecut=40 / intra_refresh=0 / rc_lookahead=40 / rc=2pass / mbtree=1 / bitrate=8066 / ratetol=1.0 / qcomp=0.60 / qpmin=0 / qpmax=69 / qpstep=4 / cplxblur=20.0 / qblur=0.5 / ip_ratio=1.40 / aq=1:1.00
Language : English
Default : Да
Forced : Нет
Аудио #1
ID : 2
Format : DTS
Format/Info : Digital Theater Systems
Mode : 16
Format settings, Endianness : Big
Muxing mode : Header stripping
Codec ID : A_DTS
Duration : 1 ч. 54 м.
Bit rate mode : Постоянный
Bit rate : 1509 Кбит/сек
Channel(s) : 6 каналов
Channel positions : Front: L C R, Side: L R, LFE
Sampling rate : 48,0 КГц
Bit depth : 24 бит
Compression mode : С потерями
Delay relative to video : 11 мс.
Stream size : 1,21 Гбайт (16%)
Language : English
Default : Нет
Forced : Нет
Аудио #2
ID : 4
Format : AC-3
Format/Info : Audio Coding 3
Mode extension : CM (complete main)
Format settings, Endianness : Big
Muxing mode : Header stripping
Codec ID : A_AC3
Duration : 1 ч. 54 м.
Bit rate mode : Постоянный
Bit rate : 448 Кбит/сек
Channel(s) : 6 канала
Channel positions : Front: L R
Sampling rate : 44,1 КГц
Bit depth : 16 бит
Compression mode : С потерями
Stream size : 105 Мбайт (1%)
Language : Russian
Default : Да
Forced : Нет
Текст
ID : 3
Format : UTF-8
Codec ID : S_TEXT/UTF8
Codec ID/Info : UTF-8 Plain Text
Title : SDH
Language : English
Default : Нет
Forced : Нет
Скриншоты:
Время раздачи: 24/7

[Цитировать]

Топик был перенесен из форума Новинки кинопроката (HD Video) в форум Зарубежное кино (HD Video)
Bootch



Показать сообщения:    

Текущее время: 16-Авг 19:06

Часовой пояс: UTC + 6


Вы не можете начинать темы
Вы не можете отвечать на сообщения
Вы не можете редактировать свои сообщения
Вы не можете удалять свои сообщения
Вы не можете голосовать в опросах
Вы не можете прикреплять файлы к сообщениям
Вы не можете скачивать файлы

!ВНИМАНИЕ!
Сайт не предоставляет электронные версии произведений, а занимается лишь коллекционированием и каталогизацией ссылок, присылаемых и публикуемых на форуме нашими читателями. Если вы являетесь правообладателем какого-либо представленного материала и не желаете, чтобы ссылка на него находилась в нашем каталоге, свяжитесь с нами, и мы незамедлительно удалим ее. Файлы для обмена на трекере предоставлены пользователями сайта, и администрация не несет ответственности за их содержание. Просьба не заливать файлы, защищенные авторскими правами, а также файлы нелегального содержания!