[ Сегодня идет свободное скачивание без начисления Download ]


Статистика раздачи
Скачал: [ 11 ]
 
   
 
 
 
 
Остров собак
Isle of Dogs
- Информация
Производство: Германия, США / 20th Century Fox Animation, American Empirical Pictures, Indian Paintbrush, Studio Babelsberg
Жанр: Мультфильм, Фэнтези, Драма, Комедия, Приключения
Режиссер: Уэс Андерсон
Продюсер: Бен Адлер, Уэс Андерсон, Эли Буш
Актеры: Брайан Крэнстон, Кою Ранкин, Эдвард Нортон, Боб Бэлабан, Билл Мюррей, Джефф Голдблюм, Кунъити Номура, Акира Такаяма, Грета Гервиг
Описание:
История 12-летнего мальчика Атари Кобаяши, опекаемого коррумпированным мэром Кобаяши. Когда по Указу последнего все домашние собаки города Мегасаки изгоняются на громадную свалку, Атари в одиночку отправляется на миниатюрном летательном аппарате на мусорный остров, чтобы найти своего верного пса по прозвищу Спотс. Там на острове вместе со стаей новых друзей-дворняг он начнет эпичное путешествие, которое решит будущую судьбу всей Префектуры.


Возраст: 16+ (зрителям, достигшим 16 лет)
Рейтинг MPAA: PG-13 (детям до 13 лет просмотр нежелателен)
Дата мировой премьеры: 15 февраля 2018
Дата российской премьеры: 3 мая 2018, «Двадцатый Век Фокс СНГ»
Продолжительность: 01:41:20
Перевод: Дублированный (iTunes)
Файл
Качество видео: WEB-DL 1080р
Видео: H.264, 1920х1080 (16:9), ~5188 kbps, 23.976 fps
Аудио#1: AAC, 2.0 ch, 296 Kbps - Русский DUB, iTunes
Аудио#2: AC3, 6.0 ch, 384 Kbps - Русский DUB, iTunes
Субтитры: Русские форсированные (хардсаб) на японскую речь и надписи

Mediainfo:

Общее
Полное имя : /Users/Isle.of.Dogs.2018.WEB-DL.1080р.m4v
Формат : MPEG-4
Идентификатор кодека : M4V (M4V /M4A /mp42/isom)
Размер файла : 4,16 Гбайт
Продолжительность : 1 ч. 41 м.
Режим общего битрейта : Переменный
Общий поток : 5875 Кбит/сек
Название фильма : Остров собак
Исполнитель : Wes Anderson
Режиссёр : Wes Anderson
Исполнитель : Bryan Cranston / Koyu Rankin / Edward Norton / Liev Schreiber / Bill Murray / Bob Balaban / Jeff Goldblum / Scarlett Johansson / Kunichi Nomura / Tilda Swinton / Ken Watanabe / Akira Ito / Greta Gerwig / Akira Takayama / Frances McDormand / F. Murray Abraham / Courtney B. Vance / Yojiro Noda / Fisher Stevens / Mari Natsuki / Nijirô Murakami / Harvey Keitel / Frank Wood
Продюсер : Wes Anderson / Scott Rudin / Jeremy Dawson / Steven Rales
Жанр : Комедии
Тип содержимого : Short Film
Дата записи : UTC 2018-05-03 07:00:00
Дата кодирования : UTC 2018-07-03 13:08:19
Дата пометки : UTC 2018-07-03 13:29:36
Авторское право : © 2018 Twentieth Century Fox Film Corporation.
Обложка : Yes
LongDescription : Новый фильм Уэса Андерсона «Остров собак» — это история Атари Кобаяши, 12-летнего мальчика, который разыскивает своего пса по кличке Спотс на громадном мусорном острове, куда были изгнаны все собаки города Мегасаки. Там на острове вместе со стаей новых друзей-дворняг он отправится в эпическое путешествие, которое решит судьбу всей Префектуры.
AppleStoreCountry : Russia
AppleStoreCatalogID : 1373046419
ContentRating : ru-movie|12+|200|
Видео #1
Идентификатор : 1
Формат : AVC
Формат/Информация : Advanced Video Codec
Профиль формата : High@L4
Настройки формата : CABAC / 4 Ref Frames
Параметр CABAC формата : Да
Параметр ReFrames формата : 4 кадра
Идентификатор кодека : avc1
Идентификатор кодека/Информация : Advanced Video Coding
Продолжительность : 1 ч. 41 м.
Битрейт : 5188 Кбит/сек
Ширина : 1920 пикселей
Высота : 1080 пикселей
Соотношение сторон : 16:9
Частота кадров : 23,976 кадра/сек
Цветовое пространство : YUV
Субдискретизация насыщенности : 4:2:0
Битовая глубина : 8 бит
Тип развёртки : Прогрессивная
Бит/(Пиксели*Кадры) : 0.104
Размер потока : 3,67 Гбайт (88%)
Язык : English
Дата кодирования : UTC 2018-07-03 13:08:19
Дата пометки : UTC 2018-07-03 13:29:18
Цветовой диапазон : Limited
Основные цвета : BT.709
Характеристики трансфера : BT.709
Коэффициенты матрицы : BT.709
Menus : 4,5
Видео #2
Идентификатор : 5
Формат : JPEG
Идентификатор кодека : jpeg
Продолжительность : 1 ч. 41 м.
Вид битрейта : Переменный
Битрейт : 1635 бит/сек
Ширина : 640 пикселей
Высота : 360 пикселей
Соотношение сторон : 16:9
Режим частоты кадров : Переменный
Частота кадров : 0,004 кадр/сек
Минимальная частота кадров : 0,003 кадр/сек
Максимальная частота кадров : 0,007 кадр/сек
Цветовое пространство : YUV
Субдискретизация насыщенности : 4:2:0
Битовая глубина : 8 бит
Метод сжатия : С потерями
Бит/(Пиксели*Кадры) : 1.774
Размер потока : 1,17 Мбайт (0%)
Язык : English
Default : Нет
Дата кодирования : UTC 2018-07-03 13:29:34
Дата пометки : UTC 2018-07-03 13:29:36
Menu For : 1
ColorSpace_ICC : RGB
Аудио #1
Идентификатор : 2
Формат : AAC
Формат/Информация : Advanced Audio Codec
Профиль формата : LC
Идентификатор кодека : mp4a-40-2
Продолжительность : 1 ч. 41 м.
Вид битрейта : Переменный
Битрейт : 296 Кбит/сек
Максимальный битрейт : 490 Кбит/сек
Каналы : 2 канала
Расположение каналов : Front: L R
Частота : 48,0 КГц
Частота кадров : 46,875 кадров/сек (1024 SPF)
Метод сжатия : С потерями
Размер потока : 214 Мбайт (5%)
Язык : Russian
Default : Да
Alternate group : 1
Дата кодирования : UTC 2018-07-03 13:08:19
Дата пометки : UTC 2018-07-03 13:29:18
Fallback From : 3
tagc : public.main-program-content
Аудио #2
Идентификатор : 3
Формат : AC-3
Формат/Информация : Audio Coding 3
Идентификатор кодека : ac-3
Продолжительность : 1 ч. 41 м.
Вид битрейта : Постоянный
Битрейт : 384 Кбит/сек
Каналы : 6 каналов
Расположение каналов : Front: L C R, Side: L R, LFE
Частота : 48,0 КГц
Частота кадров : 31,250 кадров/сек (1536 SPF)
Битовая глубина : 16 бит
Метод сжатия : С потерями
Размер потока : 278 Мбайт (7%)
Язык : Russian
Service kind : Complete Main
Default : Inherited From: 2
Alternate group : 1
Дата кодирования : UTC 2018-07-03 13:08:19
Дата пометки : UTC 2018-07-03 13:29:18
Fallback To : 2
tagc : public.main-program-content
Меню
Идентификатор : 4
Идентификатор кодека : text
Продолжительность : 1 ч. 41 м.
Язык : English
Дата кодирования : UTC 2018-07-03 13:29:18
Дата пометки : UTC 2018-07-03 13:29:18
Вид битрейта : CBR
Menu For : 1
00:00:00.000 : глава 01
00:03:35.048 : глава 02
00:07:52.180 : глава 03
00:13:40.194 : глава 04
00:16:38.372 : глава 05
00:20:44.034 : глава 06
00:26:03.311 : глава 07
00:29:26.263 : глава 08
00:35:57.570 : глава 09
00:40:35.472 : глава 10
00:44:45.429 : глава 11
00:48:14.097 : глава 12
00:52:06.496 : глава 13
00:56:05.776 : глава 14
00:59:06.080 : глава 15
01:03:16.706 : глава 16
01:08:44.075 : глава 17
01:14:02.226 : глава 18
01:16:33.961 : глава 19
01:20:45.921 : глава 20
01:23:35.215 : глава 21
01:30:08.732 : глава 22
01:33:01.489 : глава 23
01:35:40.231 : глава 24

iTunes Meta Tags:

Name: Остров собак
Artist: Wes Anderson
Media Kind: 9
HD Video: 2
Genre: Комедии
Release Date: 2018-05-03T07:00:00Z
Long Description: Новый фильм Уэса Андерсона «Остров собак» — это история Атари Кобаяши, 12-летнего мальчика, который разыскивает своего пса по кличке Спотс на громадном мусорном острове, куда были изгнаны все собаки города Мегасаки. Там на острове вместе со стаей новых друзей-дворняг он отправится в эпическое путешествие, которое решит судьбу всей Префектуры.
Rating: ru-movie|12+|200|
Cast: Bryan Cranston, Koyu Rankin, Edward Norton, Liev Schreiber, Bill Murray, Bob Balaban, Jeff Goldblum, Scarlett Johansson, Kunichi Nomura, Tilda Swinton, Ken Watanabe, Akira Ito, Greta Gerwig, Akira Takayama, Frances McDormand, F. Murray Abraham, Courtney B. Vance, Yojiro Noda, Fisher Stevens, Mari Natsuki, Nijirô Murakami, Harvey Keitel, Frank Wood
Director: Wes Anderson
Producers: Wes Anderson, Scott Rudin, Jeremy Dawson, Steven Rales
Copyright: © 2018 Twentieth Century Fox Film Corporation.
content ID: 1373046419
iTunes Country: 143469

Скриншоты

Скриншоты:

[Цитировать]



Показать сообщения:    

Текущее время: 13-Дек 03:17

Часовой пояс: UTC + 6


Вы не можете начинать темы
Вы не можете отвечать на сообщения
Вы не можете редактировать свои сообщения
Вы не можете удалять свои сообщения
Вы не можете голосовать в опросах
Вы не можете прикреплять файлы к сообщениям
Вы не можете скачивать файлы

!ВНИМАНИЕ!
Сайт не предоставляет электронные версии произведений, а занимается лишь коллекционированием и каталогизацией ссылок, присылаемых и публикуемых на форуме нашими читателями. Если вы являетесь правообладателем какого-либо представленного материала и не желаете, чтобы ссылка на него находилась в нашем каталоге, свяжитесь с нами, и мы незамедлительно удалим ее. Файлы для обмена на трекере предоставлены пользователями сайта, и администрация не несет ответственности за их содержание. Просьба не заливать файлы, защищенные авторскими правами, а также файлы нелегального содержания!