[ Сегодня идет свободное скачивание без начисления Download ]


Статистика раздачи
Скачал: [ 4 ]
 
   
 
 
 
 
Sпарта [1-2 из 8] (2017) WEB-DLRip Оригинальное название: Sпарта
Год выпуска: 2017
Жанр: Драма, детектив
Выпущено: Россия, ПЦ "Среда"
Режиссер: Егор Баранов
В ролях: Александр Петров (III), Артём Ткаченко, Алиса Лозовская, Валерия Шкирандо, Олег Гаас, Яна Енжаева, Оксана Базилевич, Ольга Сутулова, Роман Агеев, Михаил Грубов, Филипп Горенштейн, Ян Гахарманов, Юлия Марченко, Марина Калецкая, Мария Смольникова, Алла Еминцева, Ольга Виниченко, Марина Даминева, Ольга Павлюкова
О фильме: Безобидной лжи не бывает. Даже самая потаенная мысль рано или поздно пересекает границы души и оказывается в реальности настоящего времени. Представьте, что такая реальность материальна, она действительно существует, и ваши самые безжалостные фантазии находят в ней воплощение. Эта история о человеке, для которого власть, вседозволенность, безнаказанность слились воедино «Sпарта» — это игра без правил, в которой виртуальное становится реальным.
Файл:
Качество: WEB-DLRip
Видео: XviD, ~ 1700 Кбит/с, 720x400
Аудио: AC3, 2 ch, 192 Кбит/с
Продолжительность: 2 х ~ 00:53:00
Язык: Русский
Доп. ин.-ция

Внимание! Раздача ведётся путём добавления новых серий

Раздача ведётся путём добавления новых серий, при каждом добавлении создаётся новый торрент. Чтобы начать докачку новой серии, пользователям необходимо сделать следующее:
- Остановить скачивание.
- Удалить старый торрент у себя из клиента (старые серии удалять не надо).
- Скачать новый торрент и запустить его у себя в клиенте вместо старого, при этом указать клиенту путь в старую папку куда и должно происходить скачивание новых серий.
Ваш клиент при этом должен произвести хеширование (проверку) старой папки (если не производит сам - помогите ему сделать это), и будет докачивать только те серии которых у вас ещё нет. Старые серии при этом не удаляются, а продолжают раздаваться!

MediaInfo:

Общее
Полное имя : D:\моё видио\Sparta.2016. WEB-DLRip. Files-x\Sparta.e01.2016.WEB-DLRip. Files-x.avi
Формат : AVI
Формат/Информация : Audio Video Interleave
Размер файла : 699 Мбайт
Продолжительность : 53 м.
Общий поток : 1822 Кбит/сек
Программа кодирования : VirtualDubMod 1.5.10.3 | www.virtualdub-fr.org || (build 2550/release)
Библиотека кодирования : VirtualDubMod build 2550/release
Видео
Идентификатор : 0
Формат : MPEG-4 Visual
Профиль формата : Advanced Simple@L5
Параметр BVOP формата : 1
Параметр QPel формата : Нет
Параметр GMC формата : Без точки перехода
Параметр матрицы формата : Выборочная
Идентификатор кодека : XVID
Идентификатор кодека/Подсказка : XviD
Продолжительность : 53 м.
Битрейт : 1620 Кбит/сек
Ширина : 720 пикселей
Высота : 400 пикселей
Соотношение сторон : 16:9
Частота кадров : 25,000 кадров/сек
Цветовое пространство : YUV
Субдискретизация насыщенности : 4:2:0
Битовая глубина : 8 бит
Тип развёртки : Прогрессивная
Метод сжатия : С потерями
Бит/(Пиксели*Кадры) : 0.225
Размер потока : 621 Мбайт (89%)
Библиотека кодирования : XviD 73
Аудио
Идентификатор : 1
Формат : AC-3
Формат/Информация : Audio Coding 3
Расширение режима : CM (complete main)
Параметр Endianness формата : Big
Идентификатор кодека : 2000
Продолжительность : 53 м.
Вид битрейта : Постоянный
Битрейт : 192 Кбит/сек
Каналы : 2 канала
Расположение каналов : Front: L R
Частота : 48,0 КГц
Битовая глубина : 16 бит
Метод сжатия : С потерями
Размер потока : 73,6 Мбайт (11%)
Выравнивание : Разделение по промежуткам
Продолжительность промежутка : 40 мс. (1,00 видеокадр)
Время предзагрузки промежутка : 500 мс.

Скриншоты

Добавлены 1-2 серии.

[Цитировать]

Добавлена 2 серия

[Цитировать]



Показать сообщения:    

Текущее время: 18-Июл 10:40

Часовой пояс: UTC + 6


Вы не можете начинать темы
Вы не можете отвечать на сообщения
Вы не можете редактировать свои сообщения
Вы не можете удалять свои сообщения
Вы не можете голосовать в опросах
Вы не можете прикреплять файлы к сообщениям
Вы не можете скачивать файлы

!ВНИМАНИЕ!
Сайт не предоставляет электронные версии произведений, а занимается лишь коллекционированием и каталогизацией ссылок, присылаемых и публикуемых на форуме нашими читателями. Если вы являетесь правообладателем какого-либо представленного материала и не желаете, чтобы ссылка на него находилась в нашем каталоге, свяжитесь с нами, и мы незамедлительно удалим ее. Файлы для обмена на трекере предоставлены пользователями сайта, и администрация не несет ответственности за их содержание. Просьба не заливать файлы, защищенные авторскими правами, а также файлы нелегального содержания!