[ Сегодня идет свободное скачивание без начисления Download ]


Статистика раздачи
Скачал: [ 22 ]
 
   
 
 
 
 
Садко (2017) WEB-DL 1080pИнформация о фильме
Название: Садко
Год выхода: 2017
Жанр: комедия, семейный
Режиссер: Максим Волков, Виталий Мухаметзянов
В ролях: Тимур Гарипов, Любовь Аксенова, Екатерина Варнава, Мария Шалаева, Михаил Ефремов, Дмитрий Филимонов, Данис Галиуллин, Руслан Ронич, Анатолий Константинов, Диомид Виноградов
О фильме:
Хоть беги, хоть не беги, а от любви нигде не скрыться. Ни в палатах новгородского князя, ни на дне морском. Особенно, если зовут тебя Садко, и ты симпатичный веселый парень. К тому же, на гуслях играть мастак. Вот только за настоящую любовь еще и повоевать придется. Да не с кем-нибудь, а с подводной ведьмой Барракудой. Но любовь все равно победит. Вот увидите!
СЭМПЛ
Страна: Россия
Студия: Кинокомпания СТВ, Анимационная студия Мельница
Продолжительность: 01:17:50
Перевод: не требуется
Файл
Кодек: H.264
Качество: WEB-DL 1080p
Видео: AVC, 1920x804 (2.40:1), 25 fps ~ 4540 Kbps
Звук: AC3, 48 KHz, 6 ch ~ 384 Kb/s
Субтитры: отсутствуют

MI:

Общее
Уникальный идентификатор : 222995541716978274534281071210798369729 (0xA7C3610E62BC536BB7E4C73F9011CBC1)
Полное имя : Q:TorFSadk0.2017.WEB-DL1080p.mkv
Формат : Matroska
Версия формата : Version 2
Размер файла : 2,73 Гбайт
Продолжительность : 1 ч. 17 м.
Общий поток : 5023 Кбит/сек
Название фильма : Садко 2017
Дата кодирования : UTC 2018-07-10 08:13:11
Программа кодирования : mkvmerge v7.6.0 ('Garden of Dreams') 32bit built on Feb 11 2015 00:18:47
Библиотека кодирования : libebml v1.3.1 + libmatroska v1.4.2
Видео
Идентификатор : 1
Формат : AVC
Формат/Информация : Advanced Video Codec
Профиль формата : High@L4.0
Параметр CABAC формата : Да
Параметр ReFrames формата : 5 кадров
Идентификатор кодека : V_MPEG4/ISO/AVC
Продолжительность : 1 ч. 17 м.
Битрейт : 4539 Кбит/сек
Ширина : 1920 пикселей
Высота : 804 пикселя
Соотношение сторон : 2,40:1
Частота кадров : 25,000 кадров/сек
Цветовое пространство : YUV
Субдискретизация насыщенности : 4:2:0
Битовая глубина : 8 бит
Тип развёртки : Прогрессивная
Бит/(Пиксели*Кадры) : 0.118
Размер потока : 2,47 Гбайт (90%)
Язык : English
Default : Да
Forced : Нет
Основные цвета : BT.709-5, BT.1361, IEC 61966-2-4, SMPTE RP177
Характеристики трансфера : BT.709-5, BT.1361
Коэффициенты матрицы : BT.709-5, BT.1361, IEC 61966-2-4 709, SMPTE RP177
Аудио
Идентификатор : 2
Формат : AC-3
Формат/Информация : Audio Coding 3
Расширение режима : CM (complete main)
Идентификатор кодека : A_AC3
Продолжительность : 1 ч. 17 м.
Вид битрейта : Постоянный
Битрейт : 384 Кбит/сек
Каналы : 6 каналов
Расположение каналов : Front: L C R, Side: L R, LFE
Частота : 48,0 КГц
Битовая глубина : 16 бит
Метод сжатия : С потерями
Задержка видео : -40 мс.
Размер потока : 214 Мбайт (8%)
Заголовок : iTunes
Язык : Russian
Default : Да
Forced : Нет
Меню
00:00:00.000 : en:Глава 1
00:03:48.120 : en:Глава 2
00:09:16.920 : en:Глава 3
00:15:20.040 : en:Глава 4
00:21:35.040 : en:Глава 5
00:27:05.560 : en:Глава 6
00:32:45.280 : en:Глава 7
00:38:49.280 : en:Глава 8
00:45:06.080 : en:Глава 9
00:51:28.040 : en:Глава 10
00:56:01.440 : en:Глава 11
01:01:33.000 : en:Глава 12
01:07:03.440 : en:Глава 13

Скриншоты

[Цитировать]



Показать сообщения:    

Текущее время: 23-Июл 02:40

Часовой пояс: UTC + 6


Вы не можете начинать темы
Вы не можете отвечать на сообщения
Вы не можете редактировать свои сообщения
Вы не можете удалять свои сообщения
Вы не можете голосовать в опросах
Вы не можете прикреплять файлы к сообщениям
Вы не можете скачивать файлы

!ВНИМАНИЕ!
Сайт не предоставляет электронные версии произведений, а занимается лишь коллекционированием и каталогизацией ссылок, присылаемых и публикуемых на форуме нашими читателями. Если вы являетесь правообладателем какого-либо представленного материала и не желаете, чтобы ссылка на него находилась в нашем каталоге, свяжитесь с нами, и мы незамедлительно удалим ее. Файлы для обмена на трекере предоставлены пользователями сайта, и администрация не несет ответственности за их содержание. Просьба не заливать файлы, защищенные авторскими правами, а также файлы нелегального содержания!