[ Сегодня идет свободное скачивание без начисления Download ]


Статистика раздачи
Скачал: [ 7 ]
 
   
 
 
 
 
Бухта смерти (1991) DVDRip-AVC Информация о фильме
Название: Бухта смерти
Год выхода: 1991
Жанр: Детектив, боевик
Режиссер: Григорий Кохан, Тимофей Левчук
В ролях: Олег Штефанко, Игорь Крикунов, Бимбулат Ватаев, О. Фомичева, Александр Сластин, В. Степанов, Игорь Слободский, Г. Тонунц, Е. Крупенникова, Т. Слободская, В. Левицкий, Л. Гарница, Н. Колчина-Бунь, В. Корсун
О фильме:
По мотивам романа Д. Х. Чейза "Каменные джунгли". Авторы удачно перенесли действие в Крwм, обшив сюжет реалиями нашей действительности.
Молодой, широкоплечий, голубоглазый герой, спортсмен и десантник, только что демобилизовавшийся из Германии, решил отдохнуть на море до первого загара. Случай знакомит его с цыганом, играющим в частном ресторане, и тот предлагает ему работу спасателем на пляже этого заведения. По дороге они остановили "Волгу" с прицепом-фургоном, за рулем которой сидела эффектная дама. Сославшись на усталость, она попросила их повести машину, пока сама поспит в фургоне. Через несколько часов ребята заглянули в фургон, но вместо дамы обнаружили там труп... мужчины, как выяснилось позже, известного уголовника. Это было только первым звеном в хорошем детективном сюжете с милицейским расследованием, драками, стрельбой и убийствами... (М. Иванов)

Страна: СССР
Студия: Студия Довженко, СКИФ
Продолжительность: 01:47:36
Перевод: Не требуется
Файл
Качество: DVDRip-AVC
Видео: AVC/H.264, 720x544, ~1685 kbps
Аудио: AC3, 2 ch, 192 kbps

M/I

Общее
Уникальный идентификатор : 197525068890462972618142685232922079978 (0x9499F1CA616026F89B0FBA141BEBB2EA)
Полное имя : D:Советские фильмыСтепанов Виктор ФёдоровичБухта смертиБухта смерти.mkv
Формат : Matroska
Версия формата : Version 4 / Version 2
Размер файла : 1,41 Гбайт
Продолжительность : 1 ч. 47 м.
Общий поток : 1879 Кбит/сек
Название фильма : Release for Topmost
Дата кодирования : UTC 2018-07-01 14:58:07
Программа кодирования : mkvmerge v6.2.0 ('Promised Land') built on Apr 28 2013 12:22:01
Библиотека кодирования : libebml v1.3.0 + libmatroska v1.4.0
Attachment : Yes
Видео
Идентификатор : 1
Формат : AVC
Формат/Информация : Advanced Video Codec
Профиль формата : High@L4.1
Параметр CABAC формата : Да
Параметр ReFrames формата : 12 кадров
Идентификатор кодека : V_MPEG4/ISO/AVC
Продолжительность : 1 ч. 47 м.
Битрейт : 1685 Кбит/сек
Ширина : 720 пикселей
Высота : 544 пикселя
Соотношение сторон : 4:3
Режим частоты кадров : Постоянный
Частота кадров : 25,000 кадров/сек
Цветовое пространство : YUV
Субдискретизация насыщенности : 4:2:0
Битовая глубина : 8 бит
Тип развёртки : Прогрессивная
Бит/(Пиксели*Кадры) : 0.172
Размер потока : 1,24 Гбайт (88%)
Заголовок : Бухта смерти (Release for Topmost)
Библиотека кодирования : x264 core 146 r2538 121396c
Настройки программы : cabac=1 / ref=12 / deblock=1:-3:-3 / analyse=0x3:0x113 / me=umh / subme=11 / psy=1 / psy_rd=1.00:0.15 / mixed_ref=1 / me_range=32 / chroma_me=1 / trellis=2 / 8x8dct=1 / cqm=0 / deadzone=21,11 / fast_pskip=0 / chroma_qp_offset=-3 / threads=12 / lookahead_threads=2 / sliced_threads=0 / nr=0 / decimate=0 / interlaced=0 / bluray_compat=0 / constrained_intra=0 / bframes=8 / b_pyramid=2 / b_adapt=2 / b_bias=0 / direct=3 / weightb=1 / open_gop=0 / weightp=2 / keyint=240 / keyint_min=23 / scenecut=40 / intra_refresh=0 / rc_lookahead=40 / rc=2pass / mbtree=1 / bitrate=1685 / ratetol=1.0 / qcomp=0.60 / qpmin=0 / qpmax=69 / qpstep=4 / cplxblur=20.0 / qblur=0.5 / ip_ratio=1.40 / aq=1:0.90
Язык : Russian
Default : Да
Forced : Нет
Аудио
Идентификатор : 2
Формат : AC-3
Формат/Информация : Audio Coding 3
Расширение режима : CM (complete main)
Параметр Endianness формата : Big
Идентификатор кодека : A_AC3
Продолжительность : 1 ч. 47 м.
Вид битрейта : Постоянный
Битрейт : 192 Кбит/сек
Каналы : 2 канала
Расположение каналов : Front: L R
Частота : 48,0 КГц
Битовая глубина : 16 бит
Метод сжатия : С потерями
Задержка видео : 15 мс.
Размер потока : 148 Мбайт (10%)
Язык : Russian
Default : Да
Forced : Нет

Скриншоты

[Цитировать]



Показать сообщения:    

Текущее время: 14-Дек 09:41

Часовой пояс: UTC + 6


Вы не можете начинать темы
Вы не можете отвечать на сообщения
Вы не можете редактировать свои сообщения
Вы не можете удалять свои сообщения
Вы не можете голосовать в опросах
Вы не можете прикреплять файлы к сообщениям
Вы не можете скачивать файлы

!ВНИМАНИЕ!
Сайт не предоставляет электронные версии произведений, а занимается лишь коллекционированием и каталогизацией ссылок, присылаемых и публикуемых на форуме нашими читателями. Если вы являетесь правообладателем какого-либо представленного материала и не желаете, чтобы ссылка на него находилась в нашем каталоге, свяжитесь с нами, и мы незамедлительно удалим ее. Файлы для обмена на трекере предоставлены пользователями сайта, и администрация не несет ответственности за их содержание. Просьба не заливать файлы, защищенные авторскими правами, а также файлы нелегального содержания!