[ Сегодня идет свободное скачивание без начисления Download ]


Статистика раздачи
Качаю: [ 2 ]
Скачал: [ 20 ]
 
   
 
 
 
 
Восстание
Revolt
- Информация
Производство: Великобритания, ЮАР / 42, MacDuff, POW Movie, Tea Shop & Film Company
Жанр: Фантастика, боевик, приключения
Режиссер: Джо Миэйл
Актеры: Ли Пейс, Беренис Марло, Эми Луиз Уилсон, Алан Сантини, Том Фэйрфут, Кеннет Фок, Эдвин Джей, Карл Роддам
Описание:
Американский спецназовец был в Африке, когда Землю атаковали высокотехнологичные пришельцы. Столкнувшись с захватчиками, наш герой потерял сознание, а когда очнулся запертым в заброшенном полицейском участке, то понял, что лишился ещё и памяти. В соседней камере обнаружилась врач местной больницы Надя, а огромные наэлектризованные инопланетные роботы-убийцы — не самое страшное, с чем придётся столкнуться двум белым людям в Африке.


Возраст: 18+ (зрителям, достигшим 18 лет. запрещено для детей)
Рейтинг MPAA: R (лицам до 17 лет обязательно присутствие взрослого)
Дата мировой премьеры: 1 июля 2017
Цифровой релиз: 27 июля 2018

Продолжительность: 01:27:16
Перевод: Дублированный (iTunes), авторский
Файл
Качество видео: BDRip (1080p) Сэмпл
Видео: H.264/AVC, 1920x804, ~13,3 Mbps
Аудио #1: AC-3, 6 ch, 384 Kbps | Дублированный (iTunes)
Аудио #2: AC-3, 6 ch, 640 Kbps | Авторский (С. Визгунов)
Аудио #3: DTS, 6 ch, 1510 Kbps | Английский
Субтитры: Русские (Forcet, full), Английские (full)

MediaInfo:

Общее
Уникальный идентификатор : 197285296808303434249621778572569827942 (0x946BC41D3B5E4F76AB9B744C4D7D5A66)
Полное имя : E:\Восстание\Revolt 2017 BDRip 1080p.mkv
Формат : Matroska
Версия формата : Version 4 / Version 2
Размер файла : 9,88 Гбайт
Продолжительность : 1 ч. 27 м.
Общий поток : 16,2 Мбит/сек
Дата кодирования : UTC 2018-07-27 08:21:10
Программа кодирования : mkvmerge v6.9.1 ('Blue Panther') 32bit built on Apr 18 2014 18:15:44
Библиотека кодирования : libebml v1.3.0 + libmatroska v1.4.1
Видео
Идентификатор : 1
Формат : AVC
Формат/Информация : Advanced Video Codec
Профиль формата : High@L4.1
Настройки формата : CABAC / 5 Ref Frames
Параметр CABAC формата : Да
Параметр RefFrames формата : 5 кадров
Идентификатор кодека : V_MPEG4/ISO/AVC
Продолжительность : 1 ч. 27 м.
Битрейт : 13,3 Мбит/сек
Ширина : 1920 пикселей
Высота : 804 пикселя
Соотношение сторон : 2,40:1
Режим частоты кадров : Постоянный
Частота кадров : 23,976 (24000/1001) кадра/сек
Цветовое пространство : YUV
Субдискретизация насыщенности : 4:2:0
Битовая глубина : 8 бит
Тип развёртки : Прогрессивная
Бит/(Пиксели*Кадры) : 0.361
Размер потока : 8,14 Гбайт (82%)
Библиотека кодирования : x264 core 152 r2851 ba24899
Настройки программы : cabac=1 / ref=5 / deblock=1:-3:-3 / analyse=0x3:0x113 / me=umh / subme=10 / psy=1 / psy_rd=1.04:0.00 / mixed_ref=1 / me_range=32 / chroma_me=1 / trellis=2 / 8x8dct=1 / cqm=1 / deadzone=21,11 / fast_pskip=0 / chroma_qp_offset=-1 / threads=12 / lookahead_threads=2 / sliced_threads=0 / nr=0 / decimate=1 / interlaced=0 / bluray_compat=0 / constrained_intra=0 / bframes=8 / b_pyramid=2 / b_adapt=2 / b_bias=0 / direct=3 / weightb=1 / open_gop=0 / weightp=2 / keyint=230 / keyint_min=23 / scenecut=40 / intra_refresh=0 / rc_lookahead=40 / rc=crf / mbtree=0 / crf=17.2 / qcomp=0.63 / qpmin=5 / qpmax=69 / qpstep=4 / vbv_maxrate=62500 / vbv_bufsize=78125 / crf_max=0.0 / nal_hrd=none / filler=0 / ip_ratio=1.30 / pb_ratio=1.20 / aq=1:0.75
Язык : English
Default : Да
Forced : Нет
Аудио #1
Идентификатор : 2
Формат : AC-3
Формат/Информация : Audio Coding 3
Идентификатор кодека : A_AC3
Продолжительность : 1 ч. 27 м.
Вид битрейта : Постоянный
Битрейт : 384 Кбит/сек
Каналы : 6 каналов
Расположение каналов : Front: L C R, Side: L R, LFE
Частота : 48,0 КГц
Частота кадров : 31,250 кадров/сек (1536 SPF)
Битовая глубина : 16 бит
Метод сжатия : С потерями
Размер потока : 240 Мбайт (2%)
Заголовок : iTunes
Язык : Russian
ServiceKind/String : Complete Main
Default : Да
Forced : Нет
Аудио #2
Идентификатор : 3
Формат : AC-3
Формат/Информация : Audio Coding 3
Идентификатор кодека : A_AC3
Продолжительность : 1 ч. 27 м.
Вид битрейта : Постоянный
Битрейт : 640 Кбит/сек
Каналы : 6 каналов
Расположение каналов : Front: L C R, Side: L R, LFE
Частота : 48,0 КГц
Частота кадров : 31,250 кадров/сек (1536 SPF)
Битовая глубина : 16 бит
Метод сжатия : С потерями
Размер потока : 399 Мбайт (4%)
Заголовок : Визгунов
Язык : Russian
ServiceKind/String : Complete Main
Default : Нет
Forced : Нет
Аудио #3
Идентификатор : 4
Формат : DTS
Формат/Информация : Digital Theater Systems
Идентификатор кодека : A_DTS
Продолжительность : 1 ч. 27 м.
Вид битрейта : Постоянный
Битрейт : 1509 Кбит/сек
Каналы : 6 каналов
Расположение каналов : Front: L C R, Side: L R, LFE
Частота : 48,0 КГц
Частота кадров : 93,750 кадра/сек (512 SPF)
Битовая глубина : 24 бит
Метод сжатия : С потерями
Размер потока : 942 Мбайт (9%)
Язык : English
Default : Нет
Forced : Нет
Текст #1
Идентификатор : 5
Формат : UTF-8
Идентификатор кодека : S_TEXT/UTF8
Идентификатор кодека/Информация : UTF-8 Plain Text
Заголовок : Forced
Язык : Russian
Default : Да
Forced : Нет
Текст #2
Идентификатор : 6
Формат : UTF-8
Идентификатор кодека : S_TEXT/UTF8
Идентификатор кодека/Информация : UTF-8 Plain Text
Заголовок : Full
Язык : Russian
Default : Нет
Forced : Нет
Текст #3
Идентификатор : 7
Формат : UTF-8
Идентификатор кодека : S_TEXT/UTF8
Идентификатор кодека/Информация : UTF-8 Plain Text
Язык : English
Default : Нет
Forced : Нет
Меню
00:00:00.000 : en:Chapter 1
00:11:27.729 : en:Chapter 2
00:17:25.920 : en:Chapter 3
00:23:08.846 : en:Chapter 4
00:28:13.317 : en:Chapter 5
00:35:12.694 : en:Chapter 6
00:43:15.676 : en:Chapter 7
00:52:20.679 : en:Chapter 8
00:59:06.001 : en:Chapter 9
01:06:07.172 : en:Chapter 10
01:14:04.357 : en:Chapter 11
01:22:54.595 : en:Chapter 12

Скриншоты

Скриншоты:

[Цитировать]



Показать сообщения:    

Текущее время: 13-Дек 02:35

Часовой пояс: UTC + 6


Вы не можете начинать темы
Вы не можете отвечать на сообщения
Вы не можете редактировать свои сообщения
Вы не можете удалять свои сообщения
Вы не можете голосовать в опросах
Вы не можете прикреплять файлы к сообщениям
Вы не можете скачивать файлы

!ВНИМАНИЕ!
Сайт не предоставляет электронные версии произведений, а занимается лишь коллекционированием и каталогизацией ссылок, присылаемых и публикуемых на форуме нашими читателями. Если вы являетесь правообладателем какого-либо представленного материала и не желаете, чтобы ссылка на него находилась в нашем каталоге, свяжитесь с нами, и мы незамедлительно удалим ее. Файлы для обмена на трекере предоставлены пользователями сайта, и администрация не несет ответственности за их содержание. Просьба не заливать файлы, защищенные авторскими правами, а также файлы нелегального содержания!