[ Сегодня идет свободное скачивание без начисления Download ]


Статистика раздачи
Скачал: [ 4 ]
 
   
 
 
 
 
Идеальный студент
The Perfect Student
- Информация
Производство: США / Renegade Pictures (I), Hybrid
Жанр: Триллер, Криминал, Детектив
Режиссер: Майкл Фейфер
Продюсер: Майкл Фейфер, Бэрри Барнхолц, Вуд Дикинсон
Актеры: Наташа Хенстридж, Бри Грант, Джози Дэвис, Джей Пикетт, Майкл Боуэн, Карлсон Янг, Александр ДиПерсиа, Уилсон Бетел, Джон Колтон,Николь Мур
Описание:
Когда на территории кампуса была зверски убита девушка, все подозрения пали на Джордан. Николь — профессор криминалист, понимает что полиция идет по ложному следу, пытаясь взвалить всю вину на невиновного. Она начинает собственное расследование чтобы доказать невиновность Джордан. Но не всё так просто, как кажется на первый взгляд…


Рейтинг MPAA: R (лицам до 17 лет обязательно присутствие взрослого)
Продолжительность: 01:24:00
Перевод: Многоголосый закадровый, профессиональный
Файл
Качество видео: DVB [1080i]
Видео: AVC/H.264, 1920x1080, ~4735 Kbps
Аудио: MP2, 2 ch, 192 Kbps | Русский
Аудио: MP2, 2 ch, 160 Kbps | Русский
Субтитры: отсутствуют

Mediainfo:

Общее
Идентификатор : 16 (0x10)
Полное имя : The Perfect Student_HD.ts
Формат : MPEG-TS
Размер файла : 3,18 Гбайт
Продолжительность : 1 ч. 24 м.
Режим общего битрейта : Переменный
Общий поток : 5355 Кбит/сек
Видео
Идентификатор : 3410 (0xD52)
Идентификатор меню : 1410 (0x582)
Формат : AVC
Формат/Информация : Advanced Video Codec
Профиль формата : High@L4.1
Настройки формата : CABAC / 4 Ref Frames
Параметр CABAC формата : Да
Параметр RefFrames формата : 4 кадра
Параметр GOP формата : M=4, N=32
Идентификатор кодека : 27
Продолжительность : 1 ч. 24 м.
Битрейт : 4735 Кбит/сек
Ширина : 1920 пикселей
Высота : 1080 пикселей
Соотношение сторон : 16:9
Частота кадров : 25,000 кадров/сек
Стандарт вещания : PAL
Цветовое пространство : YUV
Субдискретизация насыщенности : 4:2:0
Битовая глубина : 8 бит
Тип развёртки : Чересстрочная
Метод сохранения типа развёртки : Раздельные поля
Порядок развёртки : Верхнее поле первое
Бит/(Пиксели*Кадры) : 0.091
Размер потока : 2,81 Гбайт (88%)
Цветовой диапазон : Limited
Основные цвета : BT.709
Характеристики трансфера : BT.709
Коэффициенты матрицы : BT.709
Аудио #1
Идентификатор : 4410 (0x113A)
Идентификатор меню : 1410 (0x582)
Формат : MPEG Audio
Версия формата : Version 1
Профиль формата : Layer 2
Идентификатор кодека : 4
Продолжительность : 1 ч. 24 м.
Вид битрейта : Постоянный
Битрейт : 192 Кбит/сек
Каналы : 2 канала
Частота : 48,0 КГц
Метод сжатия : С потерями
Задержка видео : 118 мс.
Размер потока : 117 Мбайт (4%)
Язык : std
Язык, дополнительно : Clean effects
Аудио #2
Идентификатор : 4460 (0x116C)
Идентификатор меню : 1410 (0x582)
Формат : MPEG Audio
Версия формата : Version 1
Профиль формата : Layer 2
Идентификатор кодека : 4
Продолжительность : 1 ч. 24 м.
Вид битрейта : Постоянный
Битрейт : 160 Кбит/сек
Каналы : 2 канала
Частота : 48,0 КГц
Метод сжатия : С потерями
Задержка видео : 30 мс.
Размер потока : 97,1 Мбайт (3%)
Язык : std
Язык, дополнительно : Clean effects

Скриншоты

Скриншоты:

[Цитировать]



Показать сообщения:    

Текущее время: 20-Окт 22:38

Часовой пояс: UTC + 6


Вы не можете начинать темы
Вы не можете отвечать на сообщения
Вы не можете редактировать свои сообщения
Вы не можете удалять свои сообщения
Вы не можете голосовать в опросах
Вы не можете прикреплять файлы к сообщениям
Вы не можете скачивать файлы

!ВНИМАНИЕ!
Сайт не предоставляет электронные версии произведений, а занимается лишь коллекционированием и каталогизацией ссылок, присылаемых и публикуемых на форуме нашими читателями. Если вы являетесь правообладателем какого-либо представленного материала и не желаете, чтобы ссылка на него находилась в нашем каталоге, свяжитесь с нами, и мы незамедлительно удалим ее. Файлы для обмена на трекере предоставлены пользователями сайта, и администрация не несет ответственности за их содержание. Просьба не заливать файлы, защищенные авторскими правами, а также файлы нелегального содержания!