[ Сегодня идет свободное скачивание без начисления Download ]


Статистика раздачи
Скачал: [ 5 ]
 
   
 
 
 
 
Сирена / Siren (2016) WEB-DL 1080p Информация о фильме
Название: Сирена
Оригинальное название: SiREN
Год выхода: 2016
Жанр: Ужасы
Режиссер: Грегг Бишоп
В ролях: Ханна Файрман, Чейз Уильямсон, Джастин Уэлборн, Майкл Аарон Миллиган, Хэйес Меркюр, Рэнди Макдауэлл, Линдси Гаррет, Марк МакКалло, Стивен Кодилл, Элиз Дюфур
О фильме:
У парня с необычным именем Джона на носу свадьба. Его брат-тусовщик Мак пытается устроить крутой мальчишник с друзьями Джоны - Рэндом и Эллиотом. Вчетвером они оказываются в странноватом заведении и вляпываются в нехорошую историю: хотели вызволить из неволи девушку Лили, но разозлили её владельца Мистера Никса. Начинаются мрачные злоключения, но в целом этот фильм про настоящую и нерушимую женскую любовь.

Страна: США
Студия: Universal Pictures, Chiller Films
Продолжительность: 01:22:03
Перевод: Любительский (многоголосый, закадровый) | Синема УС
Файл
Кодек: x264
Качество: WEB-DL 1080p
Видео: MPEG-4 AVC, 11.0 Mбит/с, 1920x1080
Звук №1: Русский | AC3, 2 ch, 192 Кбит/с
Звук №2: Английский | EAC3, 6 ch, 640 Кбит/с
Субтитры: Английские

Скриншоты

Инфо-файл

Формат : Matroska
Версия формата : Version 2
Размер файла : 6,91 Гбайт
Продолжительность : 1 ч. 22 м.
Режим общего битрейта : Переменный
Общий поток : 12,0 Мбит/сек
Название фильма : SiREN.2016.1080p.AMZN.WEB-DL.by.zzZGVvv
Дата кодирования : UTC 2018-08-16 05:38:49
Программа кодирования : mkvmerge v5.8.0 ('No Sleep / Pillow') built on Sep 2 2012 15:37:04
Библиотека кодирования : libebml v1.2.3 + libmatroska v1.3.0
Attachements : cover.jpg
Видео
Идентификатор : 1
Формат : AVC
Формат/Информация : Advanced Video Codec
Профиль формата : High@L4
Параметр CABAC формата : Да
Параметр ReFrames формата : 4 кадра
Идентификатор кодека : V_MPEG4/ISO/AVC
Продолжительность : 1 ч. 22 м.
Вид битрейта : Переменный
Битрейт : 11,0 Мбит/сек
Максимальный битрейт : 15,0 Мбит/сек
Ширина : 1920 пикселей
Высота : 1080 пикселей
Соотношение сторон : 16:9
Режим частоты кадров : Постоянный
Частота кадров : 23,976 кадра/сек
Цветовое пространство : YUV
Субдискретизация насыщенности : 4:2:0
Битовая глубина : 8 бит
Тип развёртки : Прогрессивная
Бит/(Пиксели*Кадры) : 0.221
Размер потока : 6,29 Гбайт (91%)
Заголовок : SiREN.2016.1080p.AMZN.WEB-DL.DDP5.1
Язык : English
Default : Да
Forced : Нет
Цветовой диапазон : Limited
Основные цвета : BT.709
Характеристики трансфера : BT.709
Коэффициенты матрицы : BT.709
Аудио #1
Идентификатор : 2
Формат : AC-3
Формат/Информация : Audio Coding 3
Расширение режима : CM (complete main)
Параметр Endianness формата : Big
Идентификатор кодека : A_AC3
Продолжительность : 1 ч. 22 м.
Вид битрейта : Постоянный
Битрейт : 192 Кбит/сек
Каналы : 2 канала
Расположение каналов : Front: L R
Частота : 48,0 КГц
Метод сжатия : С потерями
Размер потока : 113 Мбайт (2%)
Default : Да
Forced : Нет
Аудио #2
Идентификатор : 3
Формат : E-AC-3
Формат/Информация : Audio Coding 3
Параметр Endianness формата : Big
Идентификатор кодека : A_EAC3
Продолжительность : 1 ч. 22 м.
Вид битрейта : Постоянный
Битрейт : 640 Кбит/сек
Каналы : 6 каналов
Расположение каналов : Front: L C R, Side: L R, LFE
Частота : 48,0 КГц
Метод сжатия : С потерями
Задержка видео : 11 мс.
Размер потока : 376 Мбайт (5%)
Язык : English
Default : Нет
Forced : Нет
Текст #1
Идентификатор : 4
Формат : UTF-8
Идентификатор кодека : S_TEXT/UTF8
Идентификатор кодека/Информация : UTF-8 Plain Text
Язык : English
Default : Нет
Forced : Нет
Текст #2
Идентификатор : 5
Формат : UTF-8
Идентификатор кодека : S_TEXT/UTF8
Идентификатор кодека/Информация : UTF-8 Plain Text
Заголовок : SDH
Язык : English
Default : Нет
Forced : Нет

[Цитировать]



Показать сообщения:    

Текущее время: 16-Ноя 15:58

Часовой пояс: UTC + 6


Вы не можете начинать темы
Вы не можете отвечать на сообщения
Вы не можете редактировать свои сообщения
Вы не можете удалять свои сообщения
Вы не можете голосовать в опросах
Вы не можете прикреплять файлы к сообщениям
Вы не можете скачивать файлы

!ВНИМАНИЕ!
Сайт не предоставляет электронные версии произведений, а занимается лишь коллекционированием и каталогизацией ссылок, присылаемых и публикуемых на форуме нашими читателями. Если вы являетесь правообладателем какого-либо представленного материала и не желаете, чтобы ссылка на него находилась в нашем каталоге, свяжитесь с нами, и мы незамедлительно удалим ее. Файлы для обмена на трекере предоставлены пользователями сайта, и администрация не несет ответственности за их содержание. Просьба не заливать файлы, защищенные авторскими правами, а также файлы нелегального содержания!