[ Сегодня идет свободное скачивание без начисления Download ]


Статистика раздачи
Скачал: [ 5 ]
 
   
 
 
 
 
Жёлтые птицы / The Yellow Birds
Название: Жёлтые птицы
Оригинальное название: The Yellow Birds
Год выхода: 2017
Жанр: Драма, военный
Режиссер: Александр Мурс
В ролях: Олден Эренрайк, Дженнифер Энистон, Тай Шеридан, Тони Коллетт, Джейсон Патрик, Джек Хьюстон, Ли Тергесен, Роберт Пралго, Айлин Тецель, Рене Уиллетт
Описание: Два подростка, Брендон Бартл и Дэниел Мерфи, оказываются в самом пекле Иракской войны. Между парнями завязывается крепкая дружба, но домой сможет вернуться только Брендон. Теперь он должен помочь матери Дэниела смириться с потерей и разобраться, как череда случайностей унесла жизнь друга.

Страна: США
Производство: Cinelou Films, Story Mining & Supply Co., Echo Films
Продолжительность: 01:35:05
Перевод: Профессиональный (многоголосый, закадровый) | HDRezka Studio
Качество: BDRip-AVC | BluRay Disc | The Yellow Birds 2017 BluRay 1080p AVC DTS-HD MA5.1-MTeam
Формат: MKV
Видео: 1024x428 (2.40:1), 23,976 fps, x264 ~1 861 kbps avg, 0.177 bit/pixel
Аудио #1: 48 kHz, AC3 Dolby Digital, 2 (L,R) ch, ~192.00 kbps avg | RUS (HDRezka Studio)
Аудио #2: 48 kHz, AC3 Dolby Digital, 3/2 (L,C,R,l,r) + LFE ch, ~448.00 kbps avg | ENG
Субтитры: Английские (полные, SDH)

Скриншоты



MediaInfo

Общее
Уникальный идентификатор : 121322306515123940623403871371881565227 (0x5B45D388A80666CB82870C78DACF4C2B)
Полное имя : F:OlLanDGroupThe.Yellow.Birds.2017.BDRip(AVC).OlLanDGroup.mkv
Формат : Matroska
Версия формата : Version 4 / Version 2
Размер файла : 1,66 Гбайт
Продолжительность : 1 ч. 35 м.
Общий поток : 2500 Кбит/сек
Название фильма : The.Yellow.Birds.2017 #TorpedoUK#
Дата кодирования : UTC 2018-09-04 05:05:30
Программа кодирования : mkvmerge v25.0.0 ('Prog Noir') 64-bit
Библиотека кодирования : libebml v1.3.6 + libmatroska v1.4.9
Видео
Идентификатор : 1
Формат : AVC
Формат/Информация : Advanced Video Codec
Профиль формата : High@L4.1
Параметр CABAC формата : Да
Параметр ReFrames формата : 10 кадров
Идентификатор кодека : V_MPEG4/ISO/AVC
Продолжительность : 1 ч. 35 м.
Битрейт : 1861 Кбит/сек
Ширина : 1024 пикселя
Высота : 428 пикселей
Соотношение сторон : 2,40:1
Режим частоты кадров : Постоянный
Частота кадров : 23,976 (24000/1001) кадра/сек
Цветовое пространство : YUV
Субдискретизация насыщенности : 4:2:0
Битовая глубина : 8 бит
Тип развёртки : Прогрессивная
Бит/(Пиксели*Кадры) : 0.177
Размер потока : 1,23 Гбайт (74%)
Библиотека кодирования : x264 core 146 r2538 121396c
Настройки программы : cabac=1 / ref=10 / deblock=1:-3:-3 / analyse=0x3:0x113 / me=umh / subme=11 / psy=1 / psy_rd=0.97:0.07 / mixed_ref=1 / me_range=48 / chroma_me=1 / trellis=2 / 8x8dct=1 / cqm=0 / deadzone=21,11 / fast_pskip=1 / chroma_qp_offset=-3 / threads=6 / lookahead_threads=1 / sliced_threads=0 / nr=0 / decimate=1 / interlaced=0 / bluray_compat=0 / constrained_intra=0 / bframes=10 / b_pyramid=2 / b_adapt=2 / b_bias=0 / direct=3 / weightb=1 / open_gop=0 / weightp=2 / keyint=240 / keyint_min=23 / scenecut=40 / intra_refresh=0 / rc_lookahead=40 / rc=2pass / mbtree=1 / bitrate=1861 / ratetol=1.0 / qcomp=0.60 / qpmin=0 / qpmax=69 / qpstep=4 / cplxblur=20.0 / qblur=0.5 / vbv_maxrate=50000 / vbv_bufsize=62500 / nal_hrd=none / filler=0 / ip_ratio=1.40 / aq=1:1.00
Язык : English
Default : Да
Forced : Нет
Аудио #1
Идентификатор : 2
Формат : AC-3
Формат/Информация : Audio Coding 3
Расширение режима : CM (complete main)
Параметр Endianness формата : Big
Идентификатор кодека : A_AC3
Продолжительность : 1 ч. 35 м.
Вид битрейта : Постоянный
Битрейт : 192 Кбит/сек
Каналы : 2 канала
Расположение каналов : Front: L R
Частота : 48,0 КГц
Частота кадров : 31,250 кадров/сек (1536 spf)
Битовая глубина : 16 бит
Метод сжатия : С потерями
Размер потока : 131 Мбайт (8%)
Заголовок : MVO [HDRezka Studio]
Язык : Russian
Default : Да
Forced : Нет
Аудио #2
Идентификатор : 3
Формат : AC-3
Формат/Информация : Audio Coding 3
Расширение режима : CM (complete main)
Параметр Endianness формата : Big
Идентификатор кодека : A_AC3
Продолжительность : 1 ч. 35 м.
Вид битрейта : Постоянный
Битрейт : 448 Кбит/сек
Каналы : 6 каналов
Расположение каналов : Front: L C R, Side: L R, LFE
Частота : 48,0 КГц
Частота кадров : 31,250 кадров/сек (1536 spf)
Битовая глубина : 16 бит
Метод сжатия : С потерями
Размер потока : 305 Мбайт (18%)
Заголовок : Original
Язык : English
Default : Нет
Forced : Нет
Текст #1
Идентификатор : 4
Формат : UTF-8
Идентификатор кодека : S_TEXT/UTF8
Идентификатор кодека/Информация : UTF-8 Plain Text
Продолжительность : 1 ч. 28 м.
Битрейт : 41 бит/сек
Count of elements : 1089
Размер потока : 26,9 Кбайт (0%)
Заголовок : Full
Язык : English
Default : Нет
Forced : Нет
Текст #2
Идентификатор : 5
Формат : UTF-8
Идентификатор кодека : S_TEXT/UTF8
Идентификатор кодека/Информация : UTF-8 Plain Text
Продолжительность : 1 ч. 33 м.
Битрейт : 49 бит/сек
Count of elements : 1369
Размер потока : 34,1 Кбайт (0%)
Заголовок : SDH
Язык : English
Default : Нет
Forced : Нет
Меню
00:00:00.000 : en:00:00:00.000
00:06:17.502 : en:00:06:17.502
00:10:53.403 : en:00:10:53.403
00:17:08.778 : en:00:17:08.778
00:22:20.089 : en:00:22:20.089
00:28:05.517 : en:00:28:05.517
00:35:27.125 : en:00:35:27.125
00:42:37.680 : en:00:42:37.680
00:49:33.262 : en:00:49:33.262
00:55:13.101 : en:00:55:13.101
01:01:01.867 : en:01:01:01.867
01:06:34.616 : en:01:06:34.616
01:11:33.164 : en:01:11:33.164
01:17:53.085 : en:01:17:53.085
01:23:58.533 : en:01:23:58.533
01:29:42.127 : en:01:29:42.127

[Цитировать]

Топик был перенесен из форума Новинки кинопроката 2017 в форум Драма
Viktor1952



Показать сообщения:    

Текущее время: 19-Ноя 18:11

Часовой пояс: UTC + 6


Вы не можете начинать темы
Вы не можете отвечать на сообщения
Вы не можете редактировать свои сообщения
Вы не можете удалять свои сообщения
Вы не можете голосовать в опросах
Вы не можете прикреплять файлы к сообщениям
Вы не можете скачивать файлы

!ВНИМАНИЕ!
Сайт не предоставляет электронные версии произведений, а занимается лишь коллекционированием и каталогизацией ссылок, присылаемых и публикуемых на форуме нашими читателями. Если вы являетесь правообладателем какого-либо представленного материала и не желаете, чтобы ссылка на него находилась в нашем каталоге, свяжитесь с нами, и мы незамедлительно удалим ее. Файлы для обмена на трекере предоставлены пользователями сайта, и администрация не несет ответственности за их содержание. Просьба не заливать файлы, защищенные авторскими правами, а также файлы нелегального содержания!