[ Сегодня идет свободное скачивание без начисления Download ]


Статистика раздачи
Качаю: [ 3 ]
Скачал: [ 12 ]
 
   
 
 
 
 
Универ. Новая общага (2018) HDTVRip - Производство: Россия / "Комеди Клаб продакшн"
Жанр: комедия
Режиссер: Константин Колесов
Актеры: Арарат Кещян, Александр Стекольников, Станислав Ярушин, Анна Кузина, Анна Хилькевич, Константин Шелягин, Григорий Кокоткин, Елена Валюшкина и др.
Описание:
Финальный сезон сериала «Универ» стартует 3 сентября. Ситком завершится четверной свадьбой и неожиданным возвращением старых героев. Первая серия «Универа» вышла в эфир ТНТ в 2008 году, когда Дима Билан выиграл «Евровидение», сборная России по хоккею — чемпионат мира, а «Зенит» — Кубок УЕФА. Ни о Монеточке, ни о Гречке, ни о Гнойном никто тогда и не догадывался. Выражения из ситкома разлетелись на цитаты (слово «мемы» тогда ещё не было так заразно): «пипец», «потеря потерь», «блин блинский» и «крутяк». Песня Кузи «Шняга шняжная» стала негласным гимном прекрасной студенческой жизни. «Универ» ширился, герои взрослели, влюблялись и расставались, уходили и возвращались, учились и тусовались. И теперь настало время попрощаться с ними.

Возраст: 16+ (зрителям, достигшим 16 лет)
Продолжительность: ~00:24:00 серия
Качество видео: HDTVRip
Видео: Xvid, 720x400 (16:9), ~1549 Kbps
Аудио: AC3, 2 ch, 192 Kbps

Mediainfo:

General
Complete name : F:\СЕРИАЛЫ\УНИВЕР\Univer.Novaja.obwaga.S15.2018.XviD.HDTVRip.GeneralFilm\Univer.Novaja.obwaga.s15.e01.avi
Format : AVI
Format/Info : Audio Video Interleave
File size : 305 MiB
Duration : 24 min 21 s
Overall bit rate : 1 751 kb/s
Writing application : VirtualDubMod 1.5.10.3 | www.virtualdub-fr.org || (build 2550/release)
Writing library : VirtualDubMod build 2550/release
Video
ID : 0
Format : MPEG-4 Visual
Format profile : Advanced Simple@L5
Format settings : BVOP1 / Custom Matrix
Format settings, BVOP : 1
Format settings, QPel : No
Format settings, GMC : No warppoints
Format settings, Matrix : Custom
Codec ID : XVID
Codec ID/Hint : XviD
Duration : 24 min 21 s
Bit rate : 1 549 kb/s
Width : 720 pixels
Height : 400 pixels
Display aspect ratio : 16:9
Frame rate : 25.000 FPS
Color space : YUV
Chroma subsampling : 4:2:0
Bit depth : 8 bits
Scan type : Progressive
Compression mode : Lossy
Bits/(Pixel*Frame) : 0.215
Stream size : 270 MiB (88%)
Writing library : XviD 73
Audio
ID : 1
Format : AC-3
Format/Info : Audio Coding 3
Codec ID : 2000
Duration : 24 min 21 s
Bit rate mode : Constant
Bit rate : 192 kb/s
Channel(s) : 2 channels
Channel positions : Front: L R
Sampling rate : 48.0 kHz
Frame rate : 31.250 FPS (1536 SPF)
Bit depth : 16 bits
Compression mode : Lossy
Stream size : 33.5 MiB (11%)
Alignment : Split accross interleaves
Interleave, duration : 40 ms (1.00 video frame)
Interleave, preload duratio : 500 ms
Service kind : Complete Main

Внимание! Раздача ведётся путём добавления новых серий:

Внимание! Раздача ведётся путём добавления новых серий; при каждом добавлении создаётся новый торрент.
Чтобы начать докачку новой серии, пользователям необходимо сделать следующее:
1. Остановить скачивание;
2. Удалить старый торрент у себя из клиента (старые серии удалять не надо);
3. Скачать новый торрент и запустить его у себя в клиенте вместо старого, при этом указать клиенту путь в старую папку куда и должно происходить скачивание новых серий. Ваш клиент при этом должен произвести хеширование (проверку) старой папки и будет докачивать только те серии, которых у вас ещё нет. Старые серии при этом не удаляются, а продолжают раздаваться! Eсли вы уже удалили старые серии, то предотвратить повторную закачку старых серий можно, отжав галочку в соответствующих местах при запуске нового торрента.
Скриншоты:

[Цитировать]



Показать сообщения:    

Текущее время: 19-Ноя 10:42

Часовой пояс: UTC + 6


Вы не можете начинать темы
Вы не можете отвечать на сообщения
Вы не можете редактировать свои сообщения
Вы не можете удалять свои сообщения
Вы не можете голосовать в опросах
Вы не можете прикреплять файлы к сообщениям
Вы не можете скачивать файлы

!ВНИМАНИЕ!
Сайт не предоставляет электронные версии произведений, а занимается лишь коллекционированием и каталогизацией ссылок, присылаемых и публикуемых на форуме нашими читателями. Если вы являетесь правообладателем какого-либо представленного материала и не желаете, чтобы ссылка на него находилась в нашем каталоге, свяжитесь с нами, и мы незамедлительно удалим ее. Файлы для обмена на трекере предоставлены пользователями сайта, и администрация не несет ответственности за их содержание. Просьба не заливать файлы, защищенные авторскими правами, а также файлы нелегального содержания!