[ Сегодня идет свободное скачивание без начисления Download ]


Статистика раздачи
Скачал: [ 10 ]
 
   
 
 
 
 
Анна Николь / Anna Nicole (2013) WEB-DL 1080p Информация о фильме
Название: Анна Николь
Оригинальное название: Anna Nicole
Год выхода: 2013
Жанр: драма
Режиссер: Мэри Хэррон
В ролях: Агнес Бракнер, Мартин Ландау, Адам Голдберг, Грэхэм Патрик Мартин, Кэри Элвис, Вирджиния Мэдсен, Джулия Уолтерс, Алекса Блэр, Люк Дональдсон, Калеб Баруик
О фильме:
Фильм «Анна Николь» сможет дать представление, что может скрываться за так называемой успешной жизнью людей, которые считаются кинозвездами. Лучезарная улыбка может скрывать жуткое чувство одиночества. Жизнь блистательной телеведущей была прервана передозировкой наркотиков.

Страна: США
Студия: Sony Pictures Television
Продолжительность: 01:28:37
Перевод: Профессиональный (многоголосый закадровый)
Файл
Кодек: x264
Качество: WEB-DL 1080p
Видео: MPEG4 AVC, 4575 Кбит/с, 1916x1076, 23,976 кадра/сек
Звук 1: Русский (AC3, 2 ch, 192 Кбит/с)
Звук 2: Английский (AC3, 6 ch, 384 Кбит/с)

MI

Общее
Уникальный идентификатор : 225356632406481728433004962738705220774 (0xA98A1BD09A910B1795EBFE7E4DC744A6)
Полное имя : D:Blu-ray 4Новая папка (7)Anna.Nicole.2013.WEB-DL 1080p.mkv
Формат : Matroska
Версия формата : Version 4 / Version 2
Размер файла : 3,25 Гбайт
Продолжительность : 1 ч. 28 м.
Общий поток : 5255 Кбит/сек
Название фильма : Anna.Nicole.2013.1080p.WEB-DL.DD5.1.H264-FGT
Дата кодирования : UTC 2010-02-22 21:41:31
Программа кодирования : mkvmerge v5.9.0 ('On The Loose') built on Dec 9 2012 15:37:01
Библиотека кодирования : libebml v1.3.0 + libmatroska v1.4.0
Attachment : Yes / Yes / Yes / Yes
Видео
Идентификатор : 1
Формат : AVC
Формат/Информация : Advanced Video Codec
Профиль формата : High@L4.0
Параметр CABAC формата : Да
Параметр ReFrames формата : 4 кадра
Идентификатор кодека : V_MPEG4/ISO/AVC
Продолжительность : 1 ч. 28 м.
Битрейт : 4575 Кбит/сек
Ширина : 1916 пикселей
Высота : 1076 пикселей
Соотношение сторон : 16:9
Режим частоты кадров : Постоянный
Частота кадров : 23,976 кадра/сек
Цветовое пространство : YUV
Субдискретизация насыщенности : 4:2:0
Битовая глубина : 8 бит
Тип развёртки : Прогрессивная
Бит/(Пиксели*Кадры) : 0.093
Размер потока : 2,83 Гбайт (87%)
Заголовок : Anna.Nicole.2013.WEB-DL 1080p
Язык : English
Default : Да
Forced : Нет
Основные цвета : BT.709
Характеристики трансфера : BT.709
Коэффициенты матрицы : BT.709
Аудио #1
Идентификатор : 2
Формат : AC-3
Формат/Информация : Audio Coding 3
Расширение режима : CM (complete main)
Параметр Endianness формата : Big
Идентификатор кодека : A_AC3
Продолжительность : 1 ч. 28 м.
Вид битрейта : Постоянный
Битрейт : 192 Кбит/сек
Каналы : 2 канала
Расположение каналов : Front: L R
Частота : 48,0 КГц
Битовая глубина : 16 бит
Метод сжатия : С потерями
Размер потока : 122 Мбайт (4%)
Заголовок : MVO
Язык : Russian
Default : Да
Forced : Нет
Аудио #2
Идентификатор : 3
Формат : AC-3
Формат/Информация : Audio Coding 3
Расширение режима : CM (complete main)
Параметр Endianness формата : Big
Идентификатор кодека : A_AC3
Продолжительность : 1 ч. 28 м.
Вид битрейта : Постоянный
Битрейт : 384 Кбит/сек
Каналы : 6 каналов
Расположение каналов : Front: L C R, Side: L R, LFE
Частота : 48,0 КГц
Битовая глубина : 16 бит
Метод сжатия : С потерями
Размер потока : 243 Мбайт (7%)
Заголовок : Original
Язык : English
Default : Нет
Forced : Нет
Меню
00:00:00.000 : en:1
00:05:54.000 : en:2
00:11:14.000 : en:3
00:17:19.000 : en:4
00:24:03.000 : en:5
00:28:58.000 : en:6
00:32:53.000 : en:7
00:40:03.000 : en:8
00:45:38.000 : en:9
00:51:05.000 : en:10
00:56:53.000 : en:11
01:03:55.000 : en:12
01:08:55.000 : en:13
01:14:05.000 : en:14
01:18:08.000 : en:15
01:20:45.000 : en:16

Скриншоты


[Цитировать]



Показать сообщения:    

Текущее время: 13-Дек 02:42

Часовой пояс: UTC + 6


Вы не можете начинать темы
Вы не можете отвечать на сообщения
Вы не можете редактировать свои сообщения
Вы не можете удалять свои сообщения
Вы не можете голосовать в опросах
Вы не можете прикреплять файлы к сообщениям
Вы не можете скачивать файлы

!ВНИМАНИЕ!
Сайт не предоставляет электронные версии произведений, а занимается лишь коллекционированием и каталогизацией ссылок, присылаемых и публикуемых на форуме нашими читателями. Если вы являетесь правообладателем какого-либо представленного материала и не желаете, чтобы ссылка на него находилась в нашем каталоге, свяжитесь с нами, и мы незамедлительно удалим ее. Файлы для обмена на трекере предоставлены пользователями сайта, и администрация не несет ответственности за их содержание. Просьба не заливать файлы, защищенные авторскими правами, а также файлы нелегального содержания!