[ Сегодня идет свободное скачивание без начисления Download ]


Статистика раздачи
Скачал: [ 19 ]
 
   
 
 
 
 
Мир Юрского периода 2 / Jurassic World: Fallen Kingdom / 2018 [4K, HEVC, HDR / BDRip] (2160p) Год выпуска: 2018
Жанр: Фантастика, боевик, приключения
Выпущено: США, Испания, Universal Pictures
Режиссер: Хуан Антонио Байона
Продолжительность: 02:08:17
Перевод: Дублированный
Субтитры: Русские, английские, испанские, французские, украинские
возраст 12+
В ролях: Брайс Даллас Ховард, Крис Прэтт, Джефф Голдблюм, Тед Левайн, Джеймс Кромуэлл, Тоби Джонс, Б. Д. Вонг, Рейф Сполл, Даниэлла Пинеда, Джеральдин Чаплин

О фильме
: На острове Исла-Нублар, где не так давно располагался парк развлечений с динозаврами, правит бал дикая природа. Но без людей все далеко не так спокойно, как могло бы показаться. Основатели парка приняли решение построить его, несмотря на активный вулкан, расположенный в сердце острова. Вулкан пробудился и рискует потопить остров в лаве. Управляющая парка Клэр Дэринг уговаривает дрессировщика Оуэна Грэди вернуться в бывший парк и спасти динозавров от неминуемой гибели.
Мир Юрского периода 2 — Русский трейлер #2 (4К, 2018)
Техданные
Качество:
BDRip (2160p)
Видео: HEVC, 6914 Кбит/с, 3840x1608, 23.976 Кадр/с
Аудио: Русский (AC3, 6 ch, 384 Кбит/с), украинский (AC3, 2 ch, 192 Кбит/с), английский (AC3, 6 ch, 640 Кбит/с)
Релиз
Аудио #1: Русский /(AC3, 6 ch, 384 Кбит/с)-Дубляж-iTunes
Аудио #2: Украинский /(AC3, 2 ch, 192 Кбит/с)-Дубляж-iTunes
Аудио #3: Английский /(AC3, 6 ch, 640 Кбит/с)-Оригинал
Субтитры: Русские(Full,Forced), английские, испанские, французские, украинские(Forced)
Оригинальные главы присутствуют

MediaInfo:

Complete name : E:\Movies\Jurassic.World.Fallen.Kingdom.2018.2160p.UHD.BluRay.x265-SpaceHD13.mkv
Format : Matroska
Format version : Version 4 / Version 2
File size : 7.34 GiB
Duration : 2 h 8 min
Overall bit rate : 8 194 kb/s
Movie name : Jurassic.World.Fallen.Kingdom.2018.2160p.UHD.BluRay.x265-SpaceHD13
Encoded date : UTC 2018-09-10 18:30:24
Writing application : mkvmerge v25.0.0 ('Prog Noir') 64-bit
Writing library : libebml v1.3.6 + libmatroska v1.4.9
Video
ID : 1
Format : HEVC
Format/Info : High Efficiency Video Coding
Commercial name : HDR10
Format profile : Main 10@L5.1@High
Codec ID : V_MPEGH/ISO/HEVC
Duration : 2 h 8 min
Bit rate : 6 914 kb/s
Width : 3 840 pixels
Height : 1 608 pixels
Display aspect ratio : 2.40:1
Frame rate mode : Constant
Frame rate : 23.976 (24000/1001) FPS
Color space : YUV
Chroma subsampling : 4:2:0 (Type 2)
Bit depth : 10 bits
Bits/(Pixel*Frame) : 0.047
Stream size : 6.20 GiB (84%)
Title : Jurassic.World.Fallen.Kingdom.2018.2160p.UHD.BluRay.x265-SpaceHD13
Writing library : x265 2.8+66-88ee12651e30:[Windows][GCC 6.3.0][64 bit] 10bit
Encoding settings : cpuid=1111039 / frame-threads=4 / numa-pools=20 / wpp / no-pmode / no-pme / no-psnr / no-ssim / log-level=2 / input-csp=1 / input-res=3840x1608 / interlace=0 / total-frames=184560 / level-idc=51 / high-tier=1 / uhd-bd=0 / ref=4 / no-allow-non-conformance / repeat-headers / annexb / aud / hrd / info / hash=0 / no-temporal-layers / no-open-gop / min-keyint=1 / keyint=24 / gop-lookahead=0 / bframes=4 / b-adapt=2 / b-pyramid / bframe-bias=0 / rc-lookahead=25 / lookahead-slices=4 / scenecut=40 / radl=0 / no-intra-refresh / ctu=64 / min-cu-size=8 / rect / no-amp / max-tu-size=32 / tu-inter-depth=1 / tu-intra-depth=1 / limit-tu=0 / rdoq-level=2 / dynamic-rd=0.00 / no-ssim-rd / signhide / no-tskip / nr-intra=0 / nr-inter=0 / no-constrained-intra / no-strong-intra-smoothing / max-merge=3 / limit-refs=3 / limit-modes / me=3 / subme=3 / merange=57 / temporal-mvp / weightp / no-weightb / no-analyze-src-pics / deblock=-3:-3 / no-sao / no-sao-non-deblock / rd=4 / no-early-skip / rskip / no-fast-intra / no-tskip-fast / no-cu-lossless / no-b-intra / no-splitrd-skip / rdpenalty=0 / psy-rd=2.00 / psy-rdoq=1.00 / no-rd-refine / no-lossless / cbqpoffs=0 / crqpoffs=0 / rc=crf / crf=17.0 / qcomp=0.60 / qpstep=4 / stats-write=0 / stats-read=0 / vbv-maxrate=160000 / vbv-bufsize=160000 / vbv-init=0.9 / crf-max=0.0 / crf-min=0.0 / ipratio=1.40 / pbratio=1.30 / aq-mode=1 / aq-strength=1.00 / cutree / zone-count=0 / no-strict-cbr / qg-size=32 / no-rc-grain / qpmax=69 / qpmin=0 / no-const-vbv / sar=1 / overscan=0 / videoformat=5 / range=0 / colorprim=9 / transfer=16 / colormatrix=9 / chromaloc=1 / chromaloc-top=2 / chromaloc-bottom=2 / display-window=0 / master-display=G(13250,34500)B(7500,3000)R(34000,16000)WP(15635,16450)L(10000000,1) / max-cll=1000,153 / min-luma=0 / max-luma=1023 / log2-max-poc-lsb=8 / vui-timing-info / vui-hrd-info / slices=1 / no-opt-qp-pps / no-opt-ref-list-length-pps / no-multi-pass-opt-rps / scenecut-bias=0.05 / no-opt-cu-delta-qp / no-aq-motion / hdr / hdr-opt / no-dhdr10-opt / no-idr-recovery-sei / analysis-reuse-level=5 / scale-factor=0 / refine-intra=0 / refine-inter=0 / refine-mv=0 / no-limit-sao / ctu-info=0 / no-lowpass-dct / refine-mv-type=0 / copy-pic=1 / max-ausize-factor=1.0 / no-dynamic-refine / no-single-sei
Default : Yes
Forced : No
Color range : Limited
Color primaries : BT.2020
Transfer characteristics : PQ
Matrix coefficients : BT.2020 non-constant
Mastering display color pri : Display P3
Mastering display luminance : min: 0.0001 cd/m2, max: 1000 cd/m2
Maximum Content Light Level : 1000 cd/m2
Maximum Frame-Average Light : 153 cd/m2
Audio #1
ID : 2
Format : AC-3
Format/Info : Audio Coding 3
Codec ID : A_AC3
Duration : 2 h 8 min
Bit rate mode : Constant
Bit rate : 384 kb/s
Channel(s) : 6 channels
Channel positions : Front: L C R, Side: L R, LFE
Sampling rate : 48.0 kHz
Frame rate : 31.250 FPS (1536 SPF)
Bit depth : 16 bits
Compression mode : Lossy
Stream size : 352 MiB (5%)
Title : Jurassic.World.Fallen.Kingdom.2018.2160p.UHD.BluRay.x265-SpaceHD13[Dub-iTunes]]
Language : Russian
Service kind : Complete Main
Default : Yes
Forced : No
Audio #2
ID : 3
Format : AC-3
Format/Info : Audio Coding 3
Codec ID : A_AC3
Duration : 2 h 8 min
Bit rate mode : Constant
Bit rate : 192 kb/s
Channel(s) : 2 channels
Channel positions : Front: L R
Sampling rate : 48.0 kHz
Frame rate : 31.250 FPS (1536 SPF)
Bit depth : 16 bits
Compression mode : Lossy
Stream size : 176 MiB (2%)
Title : Jurassic.World.Fallen.Kingdom.2018.2160p.UHD.BluRay.x265-SpaceHD13[Dub-iTunes]
Language : Ukrainian
Service kind : Complete Main
Default : No
Forced : No
Audio #3
ID : 4
Format : AC-3
Format/Info : Audio Coding 3
Codec ID : A_AC3
Duration : 2 h 8 min
Bit rate mode : Constant
Bit rate : 640 kb/s
Channel(s) : 6 channels
Channel positions : Front: L C R, Side: L R, LFE
Sampling rate : 48.0 kHz
Frame rate : 31.250 FPS (1536 SPF)
Bit depth : 16 bits
Compression mode : Lossy
Stream size : 587 MiB (8%)
Title : Jurassic.World.Fallen.Kingdom.2018.2160p.UHD.BluRay.x265-SpaceHD13
Language : English
Service kind : Complete Main
Default : No
Forced : No
Text #1
ID : 5
Format : PGS
Muxing mode : zlib
Codec ID : S_HDMV/PGS
Codec ID/Info : Picture based subtitle format used on BDs/HD-DVDs
Duration : 1 h 56 min
Bit rate : 28.8 kb/s
Count of elements : 3450
Stream size : 24.0 MiB (0%)
Title : Full-length
Language : Russian
Default : Yes
Forced : No
Text #2
ID : 6
Format : PGS
Muxing mode : zlib
Codec ID : S_HDMV/PGS
Codec ID/Info : Picture based subtitle format used on BDs/HD-DVDs
Duration : 1 h 56 min
Bit rate : 196 b/s
Count of elements : 24
Stream size : 168 KiB (0%)
Title : Forced
Language : Russian
Default : No
Forced : No
Text #3
ID : 7
Format : PGS
Muxing mode : zlib
Codec ID : S_HDMV/PGS
Codec ID/Info : Picture based subtitle format used on BDs/HD-DVDs
Duration : 1 h 56 min
Bit rate : 197 b/s
Count of elements : 24
Stream size : 168 KiB (0%)
Title : Forced
Language : Ukrainian
Default : No
Forced : No
Text #4
ID : 8
Format : PGS
Muxing mode : zlib
Codec ID : S_HDMV/PGS
Codec ID/Info : Picture based subtitle format used on BDs/HD-DVDs
Duration : 1 h 56 min
Bit rate : 42.1 kb/s
Count of elements : 3450
Stream size : 35.1 MiB (0%)
Title : Full
Language : Russian
Default : No
Forced : No
Text #5
ID : 9
Format : PGS
Muxing mode : zlib
Codec ID : S_HDMV/PGS
Codec ID/Info : Picture based subtitle format used on BDs/HD-DVDs
Duration : 1 h 56 min
Bit rate : 287 b/s
Count of elements : 24
Stream size : 246 KiB (0%)
Title : Forced-SRT
Language : Russian
Default : No
Forced : No
Text #6
ID : 10
Format : PGS
Muxing mode : zlib
Codec ID : S_HDMV/PGS
Codec ID/Info : Picture based subtitle format used on BDs/HD-DVDs
Duration : 1 h 56 min
Bit rate : 288 b/s
Count of elements : 24
Stream size : 246 KiB (0%)
Title : Forced-SRT
Language : Ukrainian
Default : No
Forced : No
Text #7
ID : 11
Format : PGS
Muxing mode : zlib
Codec ID : S_HDMV/PGS
Codec ID/Info : Picture based subtitle format used on BDs/HD-DVDs
Duration : 2 h 7 min
Bit rate : 34.7 kb/s
Count of elements : 3540
Stream size : 31.5 MiB (0%)
Title : Full
Language : English
Default : No
Forced : No
Text #8
ID : 12
Format : PGS
Muxing mode : zlib
Codec ID : S_HDMV/PGS
Codec ID/Info : Picture based subtitle format used on BDs/HD-DVDs
Duration : 2 h 6 min
Bit rate : 25.1 kb/s
Count of elements : 2590
Stream size : 22.7 MiB (0%)
Title : Full
Language : Spanish
Default : No
Forced : No
Text #9
ID : 13
Format : PGS
Muxing mode : zlib
Codec ID : S_HDMV/PGS
Codec ID/Info : Picture based subtitle format used on BDs/HD-DVDs
Duration : 2 h 6 min
Bit rate : 23.6 kb/s
Count of elements : 2592
Stream size : 21.4 MiB (0%)
Title : Full
Language : French
Default : No
Forced : No
Menu
00:00:00.000 : :Глава 01
00:07:13.223 : :Глава 02
00:12:01.552 : :Глава 03
00:17:17.743 : :Глава 04
00:21:17.192 : :Глава 05
00:28:49.809 : :Глава 06
00:35:04.686 : :Глава 07
00:40:51.574 : :Глава 08
00:46:32.498 : :Глава 09
00:52:04.996 : :Глава 10
01:00:59.197 : :Глава 11
01:06:50.255 : :Глава 12
01:11:07.636 : :Глава 13
01:17:21.095 : :Глава 14
01:26:55.210 : :Глава 15
01:33:01.493 : :Глава 16
01:42:55.877 : :Глава 17
01:50:01.551 : :Глава 18
01:54:56.221 : :Глава 19
01:58:37.984 : :Глава 20

Скриншоты

[Цитировать]



Показать сообщения:    

Текущее время: 21-Ноя 00:00

Часовой пояс: UTC + 6


Вы не можете начинать темы
Вы не можете отвечать на сообщения
Вы не можете редактировать свои сообщения
Вы не можете удалять свои сообщения
Вы не можете голосовать в опросах
Вы не можете прикреплять файлы к сообщениям
Вы не можете скачивать файлы

!ВНИМАНИЕ!
Сайт не предоставляет электронные версии произведений, а занимается лишь коллекционированием и каталогизацией ссылок, присылаемых и публикуемых на форуме нашими читателями. Если вы являетесь правообладателем какого-либо представленного материала и не желаете, чтобы ссылка на него находилась в нашем каталоге, свяжитесь с нами, и мы незамедлительно удалим ее. Файлы для обмена на трекере предоставлены пользователями сайта, и администрация не несет ответственности за их содержание. Просьба не заливать файлы, защищенные авторскими правами, а также файлы нелегального содержания!