[ Сегодня идет свободное скачивание без начисления Download ]


Статистика раздачи
Скачал: [ 26 ]
 
   
 
 
 
 
Оставленные / The Outer Wild Информация о фильме
Название: Оставленные
Оригинальное название: The Outer Wild
Год выхода: 2018
Жанр: Ужасы, фантастика, фэнтези, триллер, приключения
Режиссер: Филип Хидель
В ролях: Лорен МакНайт, Кристиан Оливер, Джефф Парис, Тори Таранова, Джимми Жан-Луи, Зак Рериг, Дин Степлтон, Кари Уайт, Джесси Дж. Кларксон и другие
О фильме:
После катастрофы человечество почти вымирает: мужчины превращаются в новый вид зверей, а женщины растворяются в воздухе и попадают на красную звезду. Для оставшихся выживших строят колонии, и Лора решает убежать из такой колонии и пойти искать свою сестру, которая исчезла. В дороге Лору ловит охотник за головами изгоев, но жалеет ее и решает помочь ей найти свою сестру.

Страна: США, Chabo Films, Cardiac Pictures
Продолжительность: 01:25:00
Перевод: Любительский (двухголосый закадровый) | HiWay Grope
Файл
Кодек: MPEG-4 AVC/x.264
Качество: WEBRip 720p
Видео: 1280x528, 25.000 fps, ~3950 kbps, 0.234 bit/pixel
Звук:
Аудио rus: AC3, 48 kHz, 6 ch, 384 Kbps
Субтитры: отсутствуют
Реклама: присутствует
Семпл

MediaInfo:

General
Unique ID : 193539722548120440860571278446047267058 (0x919A650B9BC949D99D9D2FDFDB6C08F2)
Complete name : D:The.Outer.Wild.2018.720p.WERip.HiWayGropeThe.Outer.Wild.2018.720p.WERip.HiWayGrope.mkv
Format : Matroska
Format version : Version 2
File size : 2.63 GiB
Duration : 1 h 25 min
Overall bit rate : 4 422 kb/s
Encoded date : UTC 2018-10-10 16:39:02
Writing application : mkvmerge v3.3.0 ('Language') built on Mar 24 2010 14:59:24
Writing library : libebml v0.8.0 + libmatroska v0.9.0
Video
ID : 1
Format : AVC
Format/Info : Advanced Video Codec
Format profile : Main@L3.1
Format settings : CABAC / 3 Ref Frames
Format settings, CABAC : Yes
Format settings, RefFrames : 3 frames
Codec ID : V_MPEG4/ISO/AVC
Duration : 1 h 25 min
Bit rate : 3 950 kb/s
Width : 1 280 pixels
Height : 528 pixels
Display aspect ratio : 2.40:1
Frame rate mode : Constant
Frame rate : 25.000 FPS
Standard : PAL
Color space : YUV
Chroma subsampling : 4:2:0
Bit depth : 8 bits
Scan type : Progressive
Bits/(Pixel*Frame) : 0.234
Stream size : 2.35 GiB (89%)
Language : English
Default : Yes
Forced : No
Color range : Limited
Color primaries : BT.601 NTSC
Transfer characteristics : BT.601
Matrix coefficients : BT.601
Audio
ID : 2
Format : AC-3
Format/Info : Audio Coding 3
Codec ID : A_AC3
Duration : 1 h 25 min
Bit rate mode : Constant
Bit rate : 384 kb/s
Channel(s) : 6 channels
Channel positions : Front: L C R, Side: L R, LFE
Sampling rate : 48.0 kHz
Frame rate : 31.250 FPS (1536 SPF)
Bit depth : 16 bits
Compression mode : Lossy
Stream size : 233 MiB (9%)
Service kind : Complete Main
Default : Yes
Forced : No

Скриншоты

[Цитировать]



Показать сообщения:    

Текущее время: 18-Окт 21:23

Часовой пояс: UTC + 6


Вы не можете начинать темы
Вы не можете отвечать на сообщения
Вы не можете редактировать свои сообщения
Вы не можете удалять свои сообщения
Вы не можете голосовать в опросах
Вы не можете прикреплять файлы к сообщениям
Вы не можете скачивать файлы

!ВНИМАНИЕ!
Сайт не предоставляет электронные версии произведений, а занимается лишь коллекционированием и каталогизацией ссылок, присылаемых и публикуемых на форуме нашими читателями. Если вы являетесь правообладателем какого-либо представленного материала и не желаете, чтобы ссылка на него находилась в нашем каталоге, свяжитесь с нами, и мы незамедлительно удалим ее. Файлы для обмена на трекере предоставлены пользователями сайта, и администрация не несет ответственности за их содержание. Просьба не заливать файлы, защищенные авторскими правами, а также файлы нелегального содержания!