[ Сегодня идет свободное скачивание без начисления Download ]


Статистика раздачи
Качаю: [ 2 ]
 
   
 
 
 
 
Константин: Город демонов / Constantine: City of Demons / 2018 [4K, HDR / Blu-Ray Remux] (2160p)
Год выпуска:
2018
Жанр: Мультфильм, драма, ужасы, полнометражный
Выпущено: США, DC Entertainment
Режиссер: Даг Мерфи
Продолжительность: 01:30:11
Перевод: Любительский многоголосый
Субтитры: Русские, английские, французские
рейтинг MPAA 18+

В ролях
: Мэтт Райан, Дэмиан О’Хейр, Лора Бэйли, Эмили О’Брайэн, Робин Аткин Даунс, Рэйчел Кимси, Джим Мескимен, Кевин Майкл Ричардсон, Рик Д. Вассерман

О фильме
: Жизнь экзорциста Джона Константина может закончится в любой момент. Его убивает не только пагубная привычка выкуривать по десятку сигарет в день, но и утомительная работа, ведь изгонять демонов из человеческого мира — дело непростое. Каждое новое столкновение с силами зла заставляет Джона вступать в схватку, где победу способны принести не только острый ум и знание врага, но и любимый дробовик.
Константин: Город демонов — Русский трейлер (2018)
Техданные
Качество: Blu-Ray Remux (2160p)
Видео: HEVC, 83.7 Мбит/с, 3840x2160, 23.976 кадр/с
Аудио: Русский, английский (DTS-HD MA, 6 ch, 2166-2190 Кбит/с)

Релиз

Релиз от:SpaceHD13
Благодарности:
Спасибо Flarrow Films,Bobropandavar за любезно предоставленные чистые голоса
Спасибо UGN SUBZ Translators за русские субтитры
Аудио #1: DTS-HD Master Audio / 5.1 / 48 kHz / 2 166 kbps / 16-bit (DTS Core: 5.1 / 48 kHz / 1509 kbps / 16-bit) RUS / Любительский (многоголосый закадровый) Flarrow Films.
Аудио #2: DTS-HD Master Audio / 5.1 / 48 kHz / 2 190 kbps / 24-bit (DTS Core: 5.1 / 48 kHz / 1509 kbps / 24-bit) ENG / Original
Субтитры:Русские, английские, французские
присутствует ненормативная лексика!

MediaInfo:

Complete name : E:\Movies\Constantine.City.of.Demons.The.Movie.2018.2160p.BluRay.REMUX.HEVC.DTS-HD.MA.5.1-SpaceHD13.mkv
Format : Matroska
Format version : Version 4 / Version 2
File size : 55.5 GiB
Duration : 1 h 30 min
Overall bit rate : 88.2 Mb/s
Movie name : UHD 2160 || Release by SpaceHD13
Encoded date : UTC 2018-10-17 10:16:37
Writing application : mkvmerge v27.0.0 ('Metropolis') 64-bit
Writing library : libebml v1.3.6 + libmatroska v1.4.9
Cover : Yes
Attachments : cover.jpg
Video
ID : 1
Format : HEVC
Format/Info : High Efficiency Video Coding
Commercial name : HDR10
Format profile : Main 10@L5.1@High
Codec ID : V_MPEGH/ISO/HEVC
Duration : 1 h 30 min
Bit rate : 83.7 Mb/s
Width : 3 840 pixels
Height : 2 160 pixels
Display aspect ratio : 16:9
Frame rate mode : Constant
Frame rate : 23.976 (24000/1001) FPS
Color space : YUV
Chroma subsampling : 4:2:0 (Type 2)
Bit depth : 10 bits
Bits/(Pixel*Frame) : 0.421
Stream size : 52.7 GiB (95%)
Title : Constantine.City.of.Demons.The.Movie.2018.2160p.BluRay.REMUX.HEVC.DTS-HD.MA.5.1-SpaceHD13
Writing library : ATEME Titan File 3.8.16 (4.8.16.0)
Default : Yes
Forced : No
Color range : Limited
Color primaries : BT.2020
Transfer characteristics : PQ
Matrix coefficients : BT.2020 non-constant
Mastering display color primaries : Display P3
Mastering display luminance : min: 0.0050 cd/m2, max: 4000 cd/m2
Maximum Content Light Level : 1371 cd/m2
Maximum Frame-Average Light Level : 458 cd/m2
Audio #1
ID : 2
Format : DTS
Format/Info : Digital Theater Systems
Format profile : MA / Core
Codec ID : A_DTS
Duration : 1 h 30 min
Bit rate mode : Variable / Constant
Bit rate : 2 166 kb/s / 1 509 kb/s
Channel(s) : 6 channels
Channel positions : Front: L C R, Side: L R, LFE
Sampling rate : 48.0 kHz
Frame rate : 93.750 FPS (512 SPF)
Bit depth : 16 bits
Compression mode : Lossless / Lossy
Stream size : 1.36 GiB (2%)
Title : Flarrow Films
Language : Russian
Default : Yes
Forced : No
Audio #2
ID : 3
Format : DTS
Format/Info : Digital Theater Systems
Format profile : MA / Core
Codec ID : A_DTS
Duration : 1 h 30 min
Bit rate mode : Variable / Constant
Bit rate : 2 190 kb/s / 1 509 kb/s
Channel(s) : 6 channels
Channel positions : Front: L C R, Side: L R, LFE
Sampling rate : 48.0 kHz
Frame rate : 93.750 FPS (512 SPF)
Bit depth : 24 bits
Compression mode : Lossless / Lossy
Stream size : 1.38 GiB (2%)
Language : English
Default : No
Forced : No
Text #1
ID : 4
Format : PGS
Muxing mode : zlib
Codec ID : S_HDMV/PGS
Codec ID/Info : Picture based subtitle format used on BDs/HD-DVDs
Duration : 1 h 27 min
Bit rate : 52.5 kb/s
Count of elements : 2202
Stream size : 32.7 MiB (0%)
Title : UGN SUBZ Translators
Language : Russian
Default : Yes
Forced : No
Text #2
ID : 5
Format : PGS
Muxing mode : zlib
Codec ID : S_HDMV/PGS
Codec ID/Info : Picture based subtitle format used on BDs/HD-DVDs
Duration : 1 h 29 min
Bit rate : 33.4 kb/s
Count of elements : 2712
Stream size : 21.5 MiB (0%)
Language : English
Default : No
Forced : No
Text #3
ID : 6
Format : PGS
Muxing mode : zlib
Codec ID : S_HDMV/PGS
Codec ID/Info : Picture based subtitle format used on BDs/HD-DVDs
Duration : 1 h 29 min
Bit rate : 34.3 kb/s
Count of elements : 2344
Stream size : 22.0 MiB (0%)
Language : French
Default : No
Forced : No
Menu
00:00:00.000 : :Chapter 1
00:14:02.716 : :Chapter 2
00:24:02.566 : :Chapter 3
00:34:51.422 : :Chapter 4
00:48:08.844 : :Chapter 5
00:55:09.889 : :Chapter 6
01:03:57.375 : :Chapter 7
01:10:39.109 : :Chapter 8
01:22:02.876 : :Chapter 9
01:27:28.701 : :Chapter 10

Скриншоты

[Цитировать]

Топик был перенесен из форума Аниме Ultra-HD / 4К в форум Мультфильмы Ultra-HD / 4K
kiryandr



Показать сообщения:    

Текущее время: 17-Ноя 09:21

Часовой пояс: UTC + 6


Вы не можете начинать темы
Вы не можете отвечать на сообщения
Вы не можете редактировать свои сообщения
Вы не можете удалять свои сообщения
Вы не можете голосовать в опросах
Вы не можете прикреплять файлы к сообщениям
Вы не можете скачивать файлы

!ВНИМАНИЕ!
Сайт не предоставляет электронные версии произведений, а занимается лишь коллекционированием и каталогизацией ссылок, присылаемых и публикуемых на форуме нашими читателями. Если вы являетесь правообладателем какого-либо представленного материала и не желаете, чтобы ссылка на него находилась в нашем каталоге, свяжитесь с нами, и мы незамедлительно удалим ее. Файлы для обмена на трекере предоставлены пользователями сайта, и администрация не несет ответственности за их содержание. Просьба не заливать файлы, защищенные авторскими правами, а также файлы нелегального содержания!