[ Сегодня идет свободное скачивание без начисления Download ]


Статистика раздачи
Качаю: [ 2 ]
Скачал: [ 7 ]
 
   
 
 
 
 
Сборник советских мультфильмов Страна: СССР
Жанр: Мультфильм
Перевод: Не требуется
Субтитры: Нет
Общая продолжительность: 17:29:30
Описание: Сборник известных советских мультиков, на которых воспитывалось не одно поколение Вспомним детство!
Качество: DVDRip
Формат: 3GP
Видео кодек: mp4 (H.263)
Аудио кодек: AAC
Видео: 320 kbps, 320x240, 23.976 fps,
Аудио: 112 kbps, 2 ch, 44,1 khz

Список

01) Бременские музыканты
02) Возвращение блудного попугая
03) Маугли
04) Обезьянки
05) Приключения домовёнка Кузи
06) Приключения капитана Врунгеля
07) Простоквашино
08) Три лягушонка
09) Умка
10) Чебурашка и крокодил Гена
11) Бобик в гостях у Барбоса
12) Большой секрет для маленькой компании
13) Большой ух
14) Варежка
15) Волк и семеро козлят - на новый лад
16) Волк и телёнок
17) Голубой Щенок
18) Ежик в тумане
19) Жил был пёс
20) Ивашка из дворца пионеров
21) Крошка Енот
22) Крылья ноги и хвосты
23) Летучий корабль
24) Мама для мамонтёнка
25) Остров сокровищ
26) Пластилиновая ворона
27) По дороге с облаками
28) Приключения поросёнка фунтика
29) Приключения Хомы
30) Раз-горох, два-горох
31) Следствие ведут Колобки
32) Страшная история
33) Тайна третьей планеты
34) Трям! Здравствуйте!
35) Чертенок № 13
36) Алиса в стране чудес

Скриншоты

MediaInfo

General
Complete name : D:\Видео\3GP\Сов.мульт.3GP\Крылья ноги и хвосты.3gp
Format : MPEG-4
Format profile : 3GPP Media Release 5
Codec ID : 3gp5 (isom/3gp5/3gp4/mp41/mp42)
File size : 12.3 MiB
Duration : 3mn 56s
Overall bit rate mode : Variable
Overall bit rate : 436 Kbps
Encoded date : UTC 2018-10-13 09:16:50
Tagged date : UTC 2018-10-13 09:16:50
Video
ID : 1
Format : MPEG-4 Visual
Format profile : Simple@L1
Format settings, BVOP : No
Format settings, QPel : No
Format settings, GMC : No warppoints
Format settings, Matrix : Default (H.263)
Codec ID : 20
Duration : 3mn 56s
Bit rate mode : Variable
Bit rate : 321 Kbps
Maximum bit rate : 464 Kbps
Width : 320 pixels
Height : 240 pixels
Display aspect ratio : 4:3
Frame rate mode : Constant
Frame rate : 23.976 (24000/1001) fps
Color space : YUV
Chroma subsampling : 4:2:0
Bit depth : 8 bits
Scan type : Progressive
Compression mode : Lossy
Bits/(Pixel*Frame) : 0.174
Stream size : 9.05 MiB (74%)
Title : avi@GPAC0.5.2-DEV-rev248-g39d5978-master
Writing library : Lavc53.33.0
Encoded date : UTC 2018-10-13 09:16:50
Tagged date : UTC 2018-10-13 09:16:51
Audio
ID : 2
Format : AAC
Format/Info : Advanced Audio Codec
Format profile : LC
Codec ID : 40
Duration : 3mn 56s
Bit rate mode : Variable
Bit rate : 112 Kbps
Maximum bit rate : 117 Kbps
Channel(s) : 2 channels
Channel positions : Front: L R
Sampling rate : 44.1 KHz
Frame rate : 43.066 fps (1024 spf)
Compression mode : Lossy
Stream size : 3.16 MiB (26%)
Encoded date : UTC 2018-10-13 09:15:11
Tagged date : UTC 2018-10-13 09:16:51

[Цитировать]

Правила раздела ВИДЕО
5. Запрещается:
....
5.5 Раздавать видео, размер картинки которого, без учёта возможных чёрных полос сверху-снизу, меньше:
при 11:9 (1,22) - 352х288;
при 4:3 (1,33) - 368х276;

[Цитировать]



Показать сообщения:    

Текущее время: 19-Ноя 16:57

Часовой пояс: UTC + 6


Вы не можете начинать темы
Вы не можете отвечать на сообщения
Вы не можете редактировать свои сообщения
Вы не можете удалять свои сообщения
Вы не можете голосовать в опросах
Вы не можете прикреплять файлы к сообщениям
Вы не можете скачивать файлы

!ВНИМАНИЕ!
Сайт не предоставляет электронные версии произведений, а занимается лишь коллекционированием и каталогизацией ссылок, присылаемых и публикуемых на форуме нашими читателями. Если вы являетесь правообладателем какого-либо представленного материала и не желаете, чтобы ссылка на него находилась в нашем каталоге, свяжитесь с нами, и мы незамедлительно удалим ее. Файлы для обмена на трекере предоставлены пользователями сайта, и администрация не несет ответственности за их содержание. Просьба не заливать файлы, защищенные авторскими правами, а также файлы нелегального содержания!