[ Сегодня идет свободное скачивание без начисления Download ]


Статистика раздачи
Качаю: [ 2 ]
Скачал: [ 13 ]
 
   
 
 
 
 
Мир Юрского периода 2 / Jurassic World: Fallen Kingdom (2018) BDRip 1080p | 60 fps •Название: Мир Юрского периода 2
•Оригинальное название: Jurassic World: Fallen Kingdom
•Год выхода: 2018
•Жанр: фантастика, боевик, приключения
•Режиссер: Хуан Антонио Байона / Juan Antonio Bayona
•В ролях: Крис Пратт (Owen Grady), Брайс Даллас Ховард (Claire Dearing), Рейф Сполл (Eli Mills), Джастис Смит (Franklin Webb), Даниэлла Пинеда (Zia Rodriguez), Джеймс Кромуэлл (Benjamin Lockwood), Тоби Джонс (Mr. Eversoll), Тед Левайн (Ken Wheatley), Джефф Голдблюм (Ian Malcolm), Б.Д. Вонг (Dr. Wu), Джеральдин Чаплин (Iris), Изабелла Сермон (Maisie Lockwood)
•О фильме:
На острове Нублар, где не так давно располагался парк развлечений с динозаврами, правит бал дикая природа, но внезапно пробудившийся вулкан угрожает стереть динозавров с лица земли. Бывшая управляющая парком Клэр Диринг переквалифицировалась в защитницу исчезающих видов и пытается сделать всё, чтобы спасти доисторических животных. На неё выходит Илай Миллс - доверенное лицо миллиардера Бенждамина Локвуда, который много лет назад был соратником профессора Хаммонда. Миллс предлагает Клэр, знакомой с системой безопасности парка, поехать на остров и помочь ему поймать нескольких особей, чтобы вывести их на другой безопасный остров. Клэр даже удается уговорить своего бывшего парня, дрессировщика Оуэена, принять участие в спасательной миссии, но по прибытии в парк, выясняется, что у Миллса совсем другие цели.

Страна: США
Продолжительность: 02:08:29
Перевод: Профессиональный (полное дублирование) [Лицензия]
Формат: MKV
Качество: BDRip 1080p 60 fps (Источник: BDRemux 1080p)
Видео: MPEG-4 AVC, 1920x804 (2.40:1), 10.0 Mb/s, 59,940 fps, 0,108 bpp
Аудио №1: Русский / DTS / 5.1 / 48 kHz / 754 kbps / 24 bit
Аудио №1: Русский / AC3 / 5.1 / 48 kHz / 448 kbps / 16 bit
Аудио №1: Английский / AC3 / 5.1 / 48 kHz / 640 kbps / 16 bit
Субтитры: Русские (Forced,full), английские

Media Info

General
Unique ID : 239288972912363604735447074012896994695 (0xB405613C7F31C5F34C538EA1D3A4A587)
Complete name : E:Jurassic.World.Fallen.Kingdom.2018.BDRip.1080p.60FPS.and77200.mkv
Format : Matroska
Format version : Version 4 / Version 2
File size : 10.6 GiB
Duration : 2 h 8 min
Overall bit rate : 11.8 Mb/s
Movie name : Мир Юрского периода 2. 2018 - and77200
Encoded date : UTC 2018-10-21 03:12:14
Writing application : mkvmerge v20.0.0 ('I Am The Sun') 64-bit
Writing library : libebml v1.3.5 + libmatroska v1.4.8
Video
ID : 1
Format : AVC
Format/Info : Advanced Video Codec
Format profile : High@L4.1
Format settings, CABAC : Yes
Format settings, ReFrames : 9 frames
Codec ID : V_MPEG4/ISO/AVC
Duration : 2 h 8 min
Bit rate : 10.0 Mb/s
Width : 1 920 pixels
Height : 804 pixels
Display aspect ratio : 2.40:1
Frame rate mode : Constant
Frame rate : 59.940 (59940/1000) FPS
Color space : YUV
Chroma subsampling : 4:2:0
Bit depth : 8 bits
Scan type : Progressive
Bits/(Pixel*Frame) : 0.108
Stream size : 8.95 GiB (84%)
Writing library : x264 core 146 r2538 121396c
Encoding settings : cabac=1 / ref=9 / deblock=1:0:0 / analyse=0x3:0x113 / me=umh / subme=9 / psy=1 / psy_rd=1.00:0.10 / mixed_ref=1 / me_range=32 / chroma_me=1 / trellis=1 / 8x8dct=1 / cqm=0 / deadzone=21,11 / fast_pskip=0 / chroma_qp_offset=-3 / threads=6 / lookahead_threads=1 / sliced_threads=0 / nr=0 / decimate=1 / interlaced=0 / bluray_compat=0 / constrained_intra=0 / bframes=16 / b_pyramid=2 / b_adapt=2 / b_bias=0 / direct=3 / weightb=1 / open_gop=0 / weightp=2 / keyint=250 / keyint_min=25 / scenecut=40 / intra_refresh=0 / rc_lookahead=40 / rc=2pass / mbtree=1 / bitrate=10002 / ratetol=1.0 / qcomp=0.60 / qpmin=0 / qpmax=69 / qpstep=4 / cplxblur=20.0 / qblur=0.5 / vbv_maxrate=14000 / vbv_bufsize=14000 / nal_hrd=none / filler=0 / ip_ratio=1.40 / aq=1:1.00
Language : English
Default : Yes
Forced : No
Audio #1
ID : 2
Format : DTS
Format/Info : Digital Theater Systems
Mode : 16
Format settings, Endianness : Big
Codec ID : A_DTS
Duration : 2 h 8 min
Bit rate mode : Constant
Bit rate : 768 kb/s
Channel(s) : 6 channels
Channel positions : Front: L C R, Side: L R, LFE
Sampling rate : 48.0 kHz
Frame rate : 93.750 FPS (512 spf)
Bit depth : 24 bits
Compression mode : Lossy
Stream size : 705 MiB (6%)
Title : Dub [License]
Language : Russian
Default : Yes
Forced : Yes
Audio #2
ID : 3
Format : AC-3
Format/Info : Audio Coding 3
Mode extension : CM (complete main)
Format settings, Endianness : Big
Codec ID : A_AC3
Duration : 2 h 8 min
Bit rate mode : Constant
Bit rate : 448 kb/s
Channel(s) : 6 channels
Channel positions : Front: L C R, Side: L R, LFE
Sampling rate : 48.0 kHz
Frame rate : 31.250 FPS (1536 spf)
Bit depth : 16 bits
Compression mode : Lossy
Stream size : 411 MiB (4%)
Title : Dub [License]
Language : Russian
Default : No
Forced : No
Audio #3
ID : 4
Format : AC-3
Format/Info : Audio Coding 3
Mode extension : CM (complete main)
Format settings, Endianness : Big
Codec ID : A_AC3
Duration : 2 h 8 min
Bit rate mode : Constant
Bit rate : 640 kb/s
Channel(s) : 6 channels
Channel positions : Front: L C R, Side: L R, LFE
Sampling rate : 48.0 kHz
Frame rate : 31.250 FPS (1536 spf)
Bit depth : 16 bits
Compression mode : Lossy
Stream size : 587 MiB (5%)
Title : Original
Language : English
Default : No
Forced : No
Text #1
ID : 5
Format : UTF-8
Codec ID : S_TEXT/UTF8
Codec ID/Info : UTF-8 Plain Text
Duration : 2 h 6 min
Bit rate : 1 b/s
Count of elements : 40
Stream size : 1.67 KiB (0%)
Title : Forced
Language : Russian
Default : Yes
Forced : Yes
Text #2
ID : 6
Format : UTF-8
Codec ID : S_TEXT/UTF8
Codec ID/Info : UTF-8 Plain Text
Duration : 1 h 56 min
Bit rate : 73 b/s
Count of elements : 1724
Stream size : 62.7 KiB (0%)
Title : v.1
Language : Russian
Default : No
Forced : No
Text #3
ID : 7
Format : UTF-8
Codec ID : S_TEXT/UTF8
Codec ID/Info : UTF-8 Plain Text
Duration : 1 h 56 min
Bit rate : 73 b/s
Count of elements : 1725
Stream size : 62.7 KiB (0%)
Title : v.2
Language : Russian
Default : No
Forced : No
Text #4
ID : 8
Format : UTF-8
Codec ID : S_TEXT/UTF8
Codec ID/Info : UTF-8 Plain Text
Duration : 2 h 6 min
Bit rate : 66 b/s
Count of elements : 1395
Stream size : 62.1 KiB (0%)
Title : v.3
Language : Russian
Default : No
Forced : No
Text #5
ID : 9
Format : UTF-8
Codec ID : S_TEXT/UTF8
Codec ID/Info : UTF-8 Plain Text
Duration : 1 h 55 min
Bit rate : 42 b/s
Count of elements : 1285
Stream size : 36.4 KiB (0%)
Title : Full
Language : English
Default : No
Forced : No
Text #6
ID : 10
Format : UTF-8
Codec ID : S_TEXT/UTF8
Codec ID/Info : UTF-8 Plain Text
Duration : 2 h 7 min
Bit rate : 48 b/s
Count of elements : 1771
Stream size : 45.4 KiB (0%)
Title : SDH
Language : English
Default : No
Forced : No
Text #7
ID : 11
Format : UTF-8
Codec ID : S_TEXT/UTF8
Codec ID/Info : UTF-8 Plain Text
Duration : 2 h 7 min
Bit rate : 112 b/s
Count of elements : 2044
Stream size : 105 KiB (0%)
Title : SDH Colored
Language : English
Default : No
Forced : No
Menu
00:00:00.000 : en:00:00:00.000
00:07:13.224 : en:00:07:13.224
00:12:01.554 : en:00:12:01.554
00:17:17.745 : en:00:17:17.745
00:21:17.193 : en:00:21:17.193
00:28:49.811 : en:00:28:49.811
00:35:04.686 : en:00:35:04.686
00:40:51.574 : en:00:40:51.574
00:46:32.498 : en:00:46:32.498
00:52:04.997 : en:00:52:04.997
01:00:59.197 : en:01:00:59.197
01:06:50.256 : en:01:06:50.256
01:11:07.638 : en:01:11:07.638
01:17:21.095 : en:01:17:21.095
01:26:55.210 : en:01:26:55.210
01:33:01.493 : en:01:33:01.493
01:42:55.878 : en:01:42:55.878
01:50:01.553 : en:01:50:01.553
01:54:56.223 : en:01:54:56.223
01:58:37.986 : en:01:58:37.986

[Цитировать]



Показать сообщения:    

Текущее время: 15-Ноя 05:28

Часовой пояс: UTC + 6


Вы не можете начинать темы
Вы не можете отвечать на сообщения
Вы не можете редактировать свои сообщения
Вы не можете удалять свои сообщения
Вы не можете голосовать в опросах
Вы не можете прикреплять файлы к сообщениям
Вы не можете скачивать файлы

!ВНИМАНИЕ!
Сайт не предоставляет электронные версии произведений, а занимается лишь коллекционированием и каталогизацией ссылок, присылаемых и публикуемых на форуме нашими читателями. Если вы являетесь правообладателем какого-либо представленного материала и не желаете, чтобы ссылка на него находилась в нашем каталоге, свяжитесь с нами, и мы незамедлительно удалим ее. Файлы для обмена на трекере предоставлены пользователями сайта, и администрация не несет ответственности за их содержание. Просьба не заливать файлы, защищенные авторскими правами, а также файлы нелегального содержания!