[ Сегодня идет свободное скачивание без начисления Download ]


Статистика раздачи
Нет
 
   
 
Top  
 
 
-Полицейские / Cop Land (1997) BDRemux-«Никто не может быть выше закона»- Русское название: Полицейские
Оригинальное название: Cop Land
Год выпуска: 1997
Жанр: Триллер, Драма, Криминал
Описание фильма:
Фредди Хефлин с детства восхищался полицейскими. Он так и не смог стать полицейским из-за частичной глухоты. Однако, благодаря своему покладистому и открытому характеру, он становится шерифом в пригороде в штате Нью-Джерси под Нью-Йорком и живет в городке, в основном населенном его коллегами из городской полиции Нью-Йорка.
Нити расследования дел мафиозных копов приводят Мо Тилдена — следователя из отдела внутренней безопасности — в городок и к шерифу Фредди Хефлину. Хефлин начинает помогать Тилдену и вскоре обнаруживает, что его герои могут оказаться не столь непогрешимыми.
Режиссер: Джеймс Мэнголд
Актеры: Сильвестр Сталлоне, Харви Кейтель, Рей Лиотта, Роберт Де Ниро, Питер Берг, Джанин Гарофало, Роберт Патрик, Майкл Рапапорт, Ноа Эммерих
Продолжительность: 01:44:57
Перевод: Многоголосый закадровый, Двухголосый закадровый
Язык субтитров: Русский, Английский
Вид субтитров: Вшитые
-Видеокодек: MPEG-4 AVC/H.264
Битрейт видео: ~18992 kbps
Размер кадра: 1920 х 1080
Качество видео: BDRemux 1080p
Аудио 1: Русский, AC3 5.1, 448 kbps, 48 kHz (MVO)
Аудио 2: Русский, AC3 5.1, 384 kbps, 48 kHz (DVO)
Аудио 3: Английский, DTS-HD MA 5.1, 2354 kbps, 48 kHz (Оригинал)-Сэмпл: Ссылка-

Знаете ли вы, что...

Сильвестр Сталлоне специально для этого фильма набрал 40 фунтов веса, окружность его талии увеличилась с 31 до 39 дюймов. В процессе набора веса Слай заработал радикулит, учащенное сердцебиение, обратный ток желчи, проблемы с пищеварением и головные боли.
-

MediaInfo:

Общее
Уникальный идентификатор : 172820297922679443242047961317830373207 (0x8203FA8A8EBEB7D38954B4FAD2A52F57)
Полное имя : D:\Films\Cop.Land.1997.1080p.BDRemux.mkv
Формат : Matroska
Версия формата : Version 2
Размер файла : 16,3 Гбайт
Продолжительность : 1 ч. 44 м.
Режим общего битрейта : Переменный
Общий поток : 22,2 Мбит/сек
Дата кодирования : UTC 2013-04-29 15:19:50
Программа кодирования : mkvmerge v5.2.0 ('I can't explain') built on Dec 18 2011 18:12:03
Библиотека кодирования : libebml v1.2.3 + libmatroska v1.3.0
Видео
Идентификатор : 1
Формат : AVC
Формат/Информация : Advanced Video Codec
Профиль формата : High@L4.1
Параметр CABAC формата : Да
Параметр ReFrames формата : 4 кадра
Идентификатор кодека : V_MPEG4/ISO/AVC
Продолжительность : 1 ч. 44 м.
Вид битрейта : Переменный
Максимальный битрейт : 35,0 Мбит/сек
Ширина : 1920 пикселей
Высота : 1080 пикселей
Соотношение сторон : 16:9
Режим частоты кадров : Постоянный
Частота кадров : 23,976 кадра/сек
Цветовое пространство : YUV
Субдискретизация насыщенности : 4:2:0
Битовая глубина : 8 бит
Тип развёртки : Прогрессивная
Язык : English
Default : Да
Forced : Нет
Основные цвета : BT.709
Характеристики трансфера : BT.709
Коэффициенты матрицы : BT.709
Аудио #1
Идентификатор : 2
Формат : AC-3
Формат/Информация : Audio Coding 3
Расширение режима : CM (complete main)
Параметр Endianness формата : Big
Идентификатор кодека : A_AC3
Продолжительность : 1 ч. 44 м.
Вид битрейта : Постоянный
Битрейт : 448 Кбит/сек
Каналы : 6 каналов
Расположение каналов : Front: L C R, Side: L R, LFE
Частота : 48,0 КГц
Битовая глубина : 16 бит
Метод сжатия : С потерями
Размер потока : 336 Мбайт (2%)
Заголовок : MVO
Язык : Russian
Default : Да
Forced : Нет
Аудио #2
Идентификатор : 3
Формат : AC-3
Формат/Информация : Audio Coding 3
Расширение режима : CM (complete main)
Параметр Endianness формата : Big
Идентификатор кодека : A_AC3
Продолжительность : 1 ч. 44 м.
Вид битрейта : Постоянный
Битрейт : 384 Кбит/сек
Каналы : 6 каналов
Расположение каналов : Front: L C R, Side: L R, LFE
Частота : 48,0 КГц
Битовая глубина : 16 бит
Метод сжатия : С потерями
Размер потока : 288 Мбайт (2%)
Заголовок : DVO
Язык : Russian
Default : Нет
Forced : Нет
Аудио #3
Идентификатор : 4
Формат : DTS
Формат/Информация : Digital Theater Systems
Профиль формата : MA / Core
Режим : 16
Параметр Endianness формата : Big
Идентификатор кодека : A_DTS
Продолжительность : 1 ч. 44 м.
Вид битрейта : Переменный
Битрейт : Неизвестно / 1509 Кбит/сек
Каналы : 6 каналов
Расположение каналов : Front: L C R, Side: L R, LFE
Частота : 48,0 КГц
Битовая глубина : 16 бит
Метод сжатия : Без потерь / Lossy
Заголовок : Lossless
Язык : English
Default : Нет
Forced : Нет
Текст #1
Идентификатор : 5
Формат : UTF-8
Идентификатор кодека : S_TEXT/UTF8
Идентификатор кодека/Информация : UTF-8 Plain Text
Язык : Russian
Default : Нет
Forced : Нет
Текст #2
Идентификатор : 6
Формат : UTF-8
Идентификатор кодека : S_TEXT/UTF8
Идентификатор кодека/Информация : UTF-8 Plain Text
Язык : English
Default : Нет
Forced : Нет
Меню
00:00:00.000 : en:Chapter 00
00:08:57.703 : en:Chapter 01
00:16:11.053 : en:Chapter 02
00:26:47.480 : en:Chapter 03
00:33:56.576 : en:Chapter 04
00:42:37.304 : en:Chapter 05
00:50:37.993 : en:Chapter 06
00:58:12.655 : en:Chapter 07
01:06:18.015 : en:Chapter 08
01:13:07.174 : en:Chapter 09
01:25:20.031 : en:Chapter 10
01:33:31.147 : en:Chapter 11
-Скриншоты:
-Время раздачи: С 8:00 до 22:00 до 5 скачавших

[Цитировать]



Показать сообщения:    

Текущее время: 22-Авг 01:51

Часовой пояс: UTC + 6


Вы не можете начинать темы
Вы не можете отвечать на сообщения
Вы не можете редактировать свои сообщения
Вы не можете удалять свои сообщения
Вы не можете голосовать в опросах
Вы не можете прикреплять файлы к сообщениям
Вы не можете скачивать файлы

!ВНИМАНИЕ!
Сайт не предоставляет электронные версии произведений, а занимается лишь коллекционированием и каталогизацией ссылок, присылаемых и публикуемых на форуме нашими читателями. Если вы являетесь правообладателем какого-либо представленного материала и не желаете, чтобы ссылка на него находилась в нашем каталоге, свяжитесь с нами, и мы незамедлительно удалим ее. Файлы для обмена на трекере предоставлены пользователями сайта, и администрация не несет ответственности за их содержание. Просьба не заливать файлы, защищенные авторскими правами, а также файлы нелегального содержания!