[ Сегодня идет свободное скачивание без начисления Download ]


Статистика раздачи
Скачал: [ 4 ]
 
   
 
 
 
 
Space - Magic Fly (1977) 1983, Compilation - Жанр: Electronic, Synth-Pop
Издание: Vogue – 600012
Продолжительность: 00:57:25
Кодек: FLAC
Битрейт: Lossless
Тип рипа: image + .cue+scans
Треклист:
[4:22] 01. Magic Fly
[8:20] 02. Carry On, Turn Me On
[4:24] 03. Air Force
[6:42] 04. Save Your Love For Me
[3:31] 05. Space Media
[7:16] 06. Deeper Zone
[5:38] 07. Baby's Paradise
[7:12] 08. Let Me Know The Wonder
[5:33] 09. Blue Tears
[4:29] 10. Secret Dreams

Отчёт EAC:

Exact Audio Copy V1.3 from 2. September 2016
EAC extraction logfile from 3. April 2018, 13:22
Space / Magic Fly (Grey Face Vogue)
Used drive : ASUS SDRW-08D2S-U Adapter: 1 ID: 0
Read mode : Secure
Utilize accurate stream : Yes
Defeat audio cache : Yes
Make use of C2 pointers : No
Read offset correction : 6
Overread into Lead-In and Lead-Out : No
Fill up missing offset samples with silence : Yes
Delete leading and trailing silent blocks : No
Null samples used in CRC calculations : Yes
Used interface : Native Win32 interface for Win NT & 2000
Used output format : User Defined Encoder
Selected bitrate : 896 kBit/s
Quality : High
Add ID3 tag : Yes
Command line compressor : D:\Install\flac.exe
Additional command line options : -V -8 -T "Date=%year%" -T "Genre=%genre%" %source%
TOC of the extracted CD
Track | Start | Length | Start sector | End sector
---------------------------------------------------------
1 | 0:00.33 | 4:21.45 | 33 | 19652
2 | 4:22.03 | 8:19.42 | 19653 | 57119
3 | 12:41.45 | 4:23.65 | 57120 | 76909
4 | 17:05.35 | 6:42.15 | 76910 | 107074
5 | 23:47.50 | 3:30.43 | 107075 | 122867
6 | 27:18.18 | 7:15.70 | 122868 | 155562
7 | 34:34.13 | 5:37.47 | 155563 | 180884
8 | 40:11.60 | 7:11.58 | 180885 | 213267
9 | 47:23.43 | 5:33.27 | 213268 | 238269
10 | 52:56.70 | 4:29.00 | 238270 | 258444
Range status and errors
Selected range
Filename D:\222\1983 - Space - Magic Fly (Vogue)\Space - Magic Fly (Grey Face Vogue).wav
Peak level 88.9 %
Extraction speed 1.6 X
Range quality 100.0 %
Test CRC 58A75B9A
Copy CRC 58A75B9A
Copy OK
No errors occurred
AccurateRip summary
Track 1 accurately ripped (confidence 7) [68788EAC] (AR v2)
Track 2 accurately ripped (confidence 6) [DE17EAE2] (AR v2)
Track 3 accurately ripped (confidence 7) [89355237] (AR v2)
Track 4 accurately ripped (confidence 7) [4DA272A4] (AR v2)
Track 5 accurately ripped (confidence 7) [6F6C0BBF] (AR v2)
Track 6 accurately ripped (confidence 7) [C752FDC8] (AR v2)
Track 7 accurately ripped (confidence 7) [6B4C98C6] (AR v2)
Track 8 accurately ripped (confidence 7) [0287C19D] (AR v2)
Track 9 accurately ripped (confidence 7) [41B9E7A2] (AR v2)
Track 10 accurately ripped (confidence 7) [23FF7393] (AR v2)
All tracks accurately ripped
End of status report
---- CUETools DB Plugin V2.1.6
[CTDB TOCID: EHsBD4ZWE_jKXcEMVlxT2Aajtjs-] found
Submit result: EHsBD4ZWE_jKXcEMVlxT2Aajtjs- has been confirmed
Track | CTDB Status
1 | (6/6) Accurately ripped
2 | (6/6) Accurately ripped
3 | (6/6) Accurately ripped
4 | (6/6) Accurately ripped
5 | (6/6) Accurately ripped
6 | (6/6) Accurately ripped
7 | (6/6) Accurately ripped
8 | (6/6) Accurately ripped
9 | (6/6) Accurately ripped
10 | (6/6) Accurately ripped
==== Log checksum 7FCC34A4C015C328787C44FDCBDF860C220552C2161D0548008B74EC3E72FD72 ====

Cue Sheet (.cue):

REM GENRE Synthpop
REM DATE 1983
REM DISCID 820D750A
REM COMMENT "ExactAudioCopy v1.3"
PERFORMER "Space"
TITLE "Magic Fly (Grey Face Vogue)"
REM COMPOSER ""
FILE "Space - Magic Fly (Grey Face Vogue).flac" WAVE
TRACK 01 AUDIO
TITLE "Magic Fly"
PERFORMER "Space"
REM COMPOSER ""
INDEX 00 00:00:00
INDEX 01 00:00:33
TRACK 02 AUDIO
TITLE "Carry On, Turn Me On"
PERFORMER "Space"
REM COMPOSER ""
INDEX 00 04:20:03
INDEX 01 04:22:03
TRACK 03 AUDIO
TITLE "Air Force"
PERFORMER "Space"
REM COMPOSER ""
INDEX 00 12:39:45
INDEX 01 12:41:45
TRACK 04 AUDIO
TITLE "Save Your Love For Me"
PERFORMER "Space"
REM COMPOSER ""
INDEX 00 17:03:35
INDEX 01 17:05:35
TRACK 05 AUDIO
TITLE "Space Media"
PERFORMER "Space"
REM COMPOSER ""
INDEX 00 23:45:50
INDEX 01 23:47:50
TRACK 06 AUDIO
TITLE "Deeper Zone"
PERFORMER "Space"
REM COMPOSER ""
INDEX 00 27:16:18
INDEX 01 27:18:18
TRACK 07 AUDIO
TITLE "Baby's Paradise"
PERFORMER "Space"
REM COMPOSER ""
INDEX 00 34:32:13
INDEX 01 34:34:13
TRACK 08 AUDIO
TITLE "Let Me Know The Wonder"
PERFORMER "Space"
REM COMPOSER ""
INDEX 00 40:09:60
INDEX 01 40:11:60
TRACK 09 AUDIO
TITLE "Blue Tears"
PERFORMER "Space"
REM COMPOSER ""
INDEX 00 47:21:43
INDEX 01 47:23:43
TRACK 10 AUDIO
TITLE "Secret Dreams"
PERFORMER "Space"
REM COMPOSER ""
INDEX 00 52:54:70
INDEX 01 52:56:70

Отчёт auCDtect Task manager:

-----------------------
DON'T MODIFY THIS FILE
-----------------------
PERFORMER: auCDtect Task Manager, ver. 1.6.0 RC1 build 1.6.0.1
Copyright (c) 2008-2010 y-soft. All rights reserved
http://y-soft.org
ANALYZER: auCDtect: CD records authenticity detector, version 0.8.2
Copyright (c) 2004 Oleg Berngardt. All rights reserved.
Copyright (c) 2004 Alexander Djourik. All rights reserved.
FILE: Space - Magic Fly (Grey Face Vogue).flac
Size: 337620751 Hash: 092D39370E183D893DEA6F3A53B051E1 Accuracy: -m0
Conclusion: CDDA 100%
Signature: 64E6CA3E888FF3AAA64631FABBF61305ACDEEF00

[Цитировать]



Показать сообщения:    

Текущее время: 14-Ноя 21:02

Часовой пояс: UTC + 6


Вы не можете начинать темы
Вы не можете отвечать на сообщения
Вы не можете редактировать свои сообщения
Вы не можете удалять свои сообщения
Вы не можете голосовать в опросах
Вы не можете прикреплять файлы к сообщениям
Вы не можете скачивать файлы

!ВНИМАНИЕ!
Сайт не предоставляет электронные версии произведений, а занимается лишь коллекционированием и каталогизацией ссылок, присылаемых и публикуемых на форуме нашими читателями. Если вы являетесь правообладателем какого-либо представленного материала и не желаете, чтобы ссылка на него находилась в нашем каталоге, свяжитесь с нами, и мы незамедлительно удалим ее. Файлы для обмена на трекере предоставлены пользователями сайта, и администрация не несет ответственности за их содержание. Просьба не заливать файлы, защищенные авторскими правами, а также файлы нелегального содержания!