[ Сегодня идет свободное скачивание без начисления Download ]


Статистика раздачи
Качаю: [ 11 ]
Скачал: [ 33 ]
 
   
 
 
 
 
Полицейский с Рублёвки. Мы тебя найдем (2018) WEB-DLRip [H.264/720p-LQ] - Производство: Россия / Legio Felix по заказу телеканала ТНТ
Жанр: комедия, криминал
Режиссер: Илья Куликов
Актеры: Александр Петров, Сергей Бурунов, София Каштанова, Александра Бортич, Татьяна Бабенкова, Роман Попов, Ростислав Гулбис, Сергей Штатнов, Светлана Суханова, Ирина Вилкова и др.
Описание:
Грише Измайлову и его начальнику Владимиру Яковлеву противостоит преступный гений, который решил сделать жизнь рублёвских обитателей невыносимой. Прежде спокойный и безопасный район теперь задыхается от беззакония, злодей посягнул даже на оплот правопорядка — отдел полиции «Барвиха». В борьбе с преступником полицейские решают применить своё тайное оружие: умения и таланты следователя Игоря Мухича.

Возраст: 16+ (зрителям, достигшим 16 лет)
Дата российской премьеры: 3 декабря 2018
Продолжительность: ~00:48:00 серия
Качество видео: WEB-DLRip 720p
Видео: AVC/H.264, 1280x536, ~3490 Kbps
Аудио: AC3, 2 ch, 192 Kbps

Mediainfo:

Общее
Уникальный идентификатор : 201112406578364875849326440542034529200 (0x974CD731AC61691A9A5091E5CFC50BB0)
Полное имя : G:\Полицейский с Рублёвки (2018)\Серия 1.mkv
Формат : Matroska
Версия формата : Version 2
Размер файла : 1,22 Гбайт
Продолжительность : 47 м. 18 с.
Общий поток : 3681 Кбит/сек
Дата кодирования : UTC 2018-12-01 02:05:03
Программа кодирования : mkvmerge v5.8.0 ('No Sleep / Pillow') built on Sep 2 2012 15:37:04
Библиотека кодирования : libebml v1.2.3 + libmatroska v1.3.0
Видео
Идентификатор : 1
Формат : AVC
Формат/Информация : Advanced Video Codec
Профиль формата : High@L4.1
Настройки формата : CABAC / 9 Ref Frames
Параметр CABAC формата : Да
Параметр RefFrames формата : 9 кадров
Идентификатор кодека : V_MPEG4/ISO/AVC
Продолжительность : 47 м. 18 с.
Битрейт : 3490 Кбит/сек
Ширина : 1280 пикселей
Высота : 536 пикселей
Соотношение сторон : 2,40:1
Режим частоты кадров : Постоянный
Частота кадров : 25,000 кадров/сек
Цветовое пространство : YUV
Субдискретизация насыщенности : 4:2:0
Битовая глубина : 8 бит
Тип развёртки : Прогрессивная
Бит/(Пиксели*Кадры) : 0.203
Размер потока : 1,13 Гбайт (93%)
Библиотека кодирования : x264 core 155 r2901 7d0ff22
Настройки программы : cabac=1 / ref=9 / deblock=1:-3:-3 / analyse=0x3:0x133 / me=umh / subme=11 / psy=1 / psy_rd=1.00:0.05 / mixed_ref=1 / me_range=32 / chroma_me=1 / trellis=2 / 8x8dct=1 / cqm=0 / deadzone=21,11 / fast_pskip=0 / chroma_qp_offset=-3 / threads=12 / lookahead_threads=3 / sliced_threads=0 / nr=0 / decimate=0 / interlaced=0 / bluray_compat=0 / constrained_intra=0 / bframes=10 / b_pyramid=2 / b_adapt=2 / b_bias=0 / direct=3 / weightb=1 / open_gop=0 / weightp=2 / keyint=250 / keyint_min=25 / scenecut=40 / intra_refresh=0 / rc_lookahead=40 / rc=2pass / mbtree=1 / bitrate=3490 / ratetol=1.0 / qcomp=0.60 / qpmin=0 / qpmax=51 / qpstep=4 / cplxblur=20.0 / qblur=0.5 / vbv_maxrate=50000 / vbv_bufsize=62500 / nal_hrd=none / filler=0 / ip_ratio=1.40 / aq=1:1.00
Язык : Russian
Default : Да
Forced : Нет
Аудио
Идентификатор : 2
Формат : AC-3
Формат/Информация : Audio Coding 3
Коммерческое название : Dolby Digital
Идентификатор кодека : A_AC3
Продолжительность : 47 м. 18 с.
Вид битрейта : Постоянный
Битрейт : 192 Кбит/сек
Каналы : 2 канала
Channel layout : L R
Частота : 48,0 КГц
Частота кадров : 31,250 кадров/сек (1536 SPF)
Битовая глубина : 16 бит
Метод сжатия : С потерями
Размер потока : 65,0 Мбайт (5%)
Язык : Russian
ServiceKind/String : Complete Main
Default : Да
Forced : Нет

Внимание! Раздача ведётся путём добавления новых серий

Внимание! Раздача ведётся путём добавления новых серий; при каждом добавлении создаётся новый торрент.
Чтобы начать докачку новой серии, пользователям необходимо сделать следующее:
1. Остановить скачивание;
2. Удалить старый торрент у себя из клиента (старые серии удалять не надо);
3. Скачать новый торрент и запустить его у себя в клиенте вместо старого, при этом указать клиенту путь в старую папку куда и должно происходить скачивание новых серий. Ваш клиент при этом должен произвести хеширование (проверку) старой папки и будет докачивать только те серии, которых у вас ещё нет. Старые серии при этом не удаляются, а продолжают раздаваться! Eсли вы уже удалили старые серии, то предотвратить повторную закачку старых серий можно, отжав галочку в соответствующих местах при запуске нового торрента.
Скриншоты:

[Цитировать]



Показать сообщения:    

Текущее время: 14-Дек 06:13

Часовой пояс: UTC + 6


Вы не можете начинать темы
Вы не можете отвечать на сообщения
Вы не можете редактировать свои сообщения
Вы не можете удалять свои сообщения
Вы не можете голосовать в опросах
Вы не можете прикреплять файлы к сообщениям
Вы не можете скачивать файлы

!ВНИМАНИЕ!
Сайт не предоставляет электронные версии произведений, а занимается лишь коллекционированием и каталогизацией ссылок, присылаемых и публикуемых на форуме нашими читателями. Если вы являетесь правообладателем какого-либо представленного материала и не желаете, чтобы ссылка на него находилась в нашем каталоге, свяжитесь с нами, и мы незамедлительно удалим ее. Файлы для обмена на трекере предоставлены пользователями сайта, и администрация не несет ответственности за их содержание. Просьба не заливать файлы, защищенные авторскими правами, а также файлы нелегального содержания!