[ Сегодня идет свободное скачивание без начисления Download ]


Статистика раздачи
Нет
 
   
 
Top  
 
 
-Остров везения (2013) BDRip- Год выпуска: 2013
Производство: Россия
Жанр: Комедия
Перевод: Не требуется (Русский)
Субтитры: Отсутствуют
Режиссер: Кирилл Козлов
Актеры: Роман Юнусов, Светлана Ходченкова, Агния Дитковските, Анна Хилькевич, Алексей Чумаков, Татьяна Орлова, Даша Астафьева, Юлия Гришина, Александр Сазонов, Мария Кравцова
Описание фильма:
Тихоокеанский лайнер. Полуобнажённые красотки, участвующие в конкурсе красоты. Шампанское и голубой океан… О таком бывшая звезда телевидения, а ныне ведущий дешёвых свадеб, даже и не мечтал. Однако круиз мечты неожиданно прервётся цепью невероятных событий. И наш герой окажется на необитаемом острове, в окружении трёх финалисток конкурса — принципиальной стервы, паникёрши и классической блондинки. Что делать? Ведь лишившись возможности выиграть вожделенную корону, девушки его наверняка порвут на кусочки. Значит надо продолжать конкурс! Сделав вид, что так задумано, Роман начинает представление...
Дата мировой премьеры: 5 декабря 2013
Дата российской премьеры: 5 декабря 2013, «Каропрокат»
Дата выхода DVD/Blu-Ray релиза: 14 января 2014, «Lizard Cinema Trade»

Продолжительность: 01:22:25
Качество видео: BDRip [720p]
Видеокодек: MPEG-4 AVC/H.264
Видео: 1280x546, ~5418 Kbps
Аудио 1: AC3, 6 ch, 640 kbps (Русский)
Аудио 2: DTS, 6 ch, 1509 kbps (Русский)

MediaInfo:

Общее
Уникальный идентификатор : 177074600230238785717056003727242823496 (0x853753D6DE4F6A03BF652BA1761C0748)
Полное имя : Ostrov.vezeniya.2013.BDRip.720p.mkv
Формат : Matroska
Версия формата : Version 2
Размер файла : 4,45 Гбайт
Продолжительность : 1 ч. 22 м.
Общий поток : 7721 Кбит/сек
Название фильма : Ostrov vezeniya (2013)
Дата кодирования : UTC 2014-01-16 09:26:41
Программа кодирования : mkvmerge v4.6.0 ('Still Crazy After All These Years') сборка от Mar 10 2011 02:50:32
Библиотека кодирования : libebml v1.2.0 + libmatroska v1.1.0
Видео
Идентификатор : 1
Формат : AVC
Формат/Информация : Advanced Video Codec
Профиль формата : High@L4.1
Параметр CABAC формата : Да
Параметр ReFrames формата : 11 кадров
Идентификатор кодека : V_MPEG4/ISO/AVC
Продолжительность : 1 ч. 22 м.
Битрейт : 5418 Кбит/сек
Ширина : 1280 пикселей
Высота : 546 пикселей
Соотношение сторон : 2,35:1
Режим частоты кадров : Постоянный
Частота кадров : 24,000 кадра/сек
Цветовое пространство : YUV
Субдискретизация насыщенности : 4:2:0
Битовая глубина : 8 бит
Тип развёртки : Прогрессивная
Бит/(Пиксели*Кадры) : 0.323
Размер потока : 3,12 Гбайт (70%)
Заголовок : Ostrov vezeniya (2013) BDRip 720p
Библиотека кодирования : x264 core 130 r2273 b3065e6
Настройки программы : cabac=1 / ref=11 / deblock=1:-3:-3 / analyse=0x3:0x133 / me=umh / subme=11 / psy=1 / psy_rd=1.05:0.00 / mixed_ref=1 / me_range=48 / chroma_me=1 / trellis=2 / 8x8dct=1 / cqm=0 / deadzone=21,11 / fast_pskip=0 / chroma_qp_offset=-2 / threads=12 / lookahead_threads=2 / sliced_threads=0 / nr=0 / decimate=1 / interlaced=0 / bluray_compat=0 / constrained_intra=0 / bframes=9 / b_pyramid=2 / b_adapt=2 / b_bias=0 / direct=3 / weightb=1 / open_gop=0 / weightp=2 / keyint=250 / keyint_min=23 / scenecut=40 / intra_refresh=0 / rc_lookahead=40 / rc=crf / mbtree=0 / crf=16.5 / qcomp=0.60 / qpmin=0 / qpmax=69 / qpstep=4 / vbv_maxrate=62500 / vbv_bufsize=78125 / crf_max=0.0 / nal_hrd=none / ip_ratio=1.40 / pb_ratio=1.30 / aq=1:0.80
Язык : Russian
Default : Да
Forced : Нет
Аудио #1
Идентификатор : 2
Формат : AC-3
Формат/Информация : Audio Coding 3
Расширение режима : CM (complete main)
Параметр Endianness формата : Big
Идентификатор кодека : A_AC3
Продолжительность : 1 ч. 22 м.
Вид битрейта : Постоянный
Битрейт : 640 Кбит/сек
Каналы : 6 каналов
Расположение каналов : Front: L C R, Side: L R, LFE
Частота : 48,0 КГц
Битовая глубина : 16 бит
Метод сжатия : С потерями
Размер потока : 377 Мбайт (8%)
Заголовок : AC3, 6 ch, 640 kbps
Язык : Russian
Default : Да
Forced : Нет
Аудио #2
Идентификатор : 3
Формат : DTS
Формат/Информация : Digital Theater Systems
Режим : 16
Параметр Endianness формата : Big
Идентификатор кодека : A_DTS
Продолжительность : 1 ч. 22 м.
Вид битрейта : Постоянный
Битрейт : 1509 Кбит/сек
Каналы : 6 каналов
Расположение каналов : Front: L C R, Side: L R, LFE
Частота : 48,0 КГц
Битовая глубина : 16 бит
Метод сжатия : С потерями
Задержка видео : 11 мс.
Размер потока : 890 Мбайт (20%)
Заголовок : DTS, 6 ch, 1509 kbps
Язык : Russian
Default : Нет
Forced : Нет
Меню
00:00:00.000 : ru:Chapter 1
00:09:35.458 : ru:Chapter 2
00:20:10.041 : ru:Chapter 3
00:28:56.125 : ru:Chapter 4
00:41:51.583 : ru:Chapter 5
00:51:06.625 : ru:Chapter 6
00:59:31.291 : ru:Chapter 7
01:08:06.375 : ru:Chapter 8
Скриншоты:
[th]http://i1.imageban.ru/out/2014/01/16/e06dbd169cf1e3184953f08552557c06.jpg[/th]

[Цитировать]



Показать сообщения:    

Текущее время: 18-Авг 05:30

Часовой пояс: UTC + 6


Вы не можете начинать темы
Вы не можете отвечать на сообщения
Вы не можете редактировать свои сообщения
Вы не можете удалять свои сообщения
Вы не можете голосовать в опросах
Вы не можете прикреплять файлы к сообщениям
Вы не можете скачивать файлы

!ВНИМАНИЕ!
Сайт не предоставляет электронные версии произведений, а занимается лишь коллекционированием и каталогизацией ссылок, присылаемых и публикуемых на форуме нашими читателями. Если вы являетесь правообладателем какого-либо представленного материала и не желаете, чтобы ссылка на него находилась в нашем каталоге, свяжитесь с нами, и мы незамедлительно удалим ее. Файлы для обмена на трекере предоставлены пользователями сайта, и администрация не несет ответственности за их содержание. Просьба не заливать файлы, защищенные авторскими правами, а также файлы нелегального содержания!