[ Сегодня идет свободное скачивание без начисления Download ]


Статистика раздачи
Нет
 
   
 
Top  
 
 
-Вкус ночи / Wir sind die Nacht (2010) BDRip- Год выпуска: 2010
Производство: Германия, Celluloid Dreams, Constantin Film Produktion GmbH, Rat Pack Filmproduktion GmbH
Жанр: Ужасы, Фэнтези, Драма
Перевод: Дублированный
Субтитры: Вшитые (отключаемые)
Язык субтитров: Русские, английские, немецкие
Режиссер: Деннис Ганзель
Актеры: Каролине Херфурт, Нина Хосс, Дженнифер Ульрих, Анна Фишер, Макс Римельт, Арвед Бирнбаум, Штеффи Кюнерт, Йохен Никель, Иван Шведов, Николас Ромм, Мануэль Депта, Том Джестер, Валера Канищев, Кристиан Нэте, Том Жан, Нил Белахдар, Ману Любовски, Рут Глёс, Кристина До Рего, Дороти Киршнер, Стив Тиде, Берн Вейкерт, Томас Клуг, Ронни Шрёдер, Александр Тарнавас, Александр Яссин
Описание фильма:
Лина — трудный подросток, она не находит общего языка с родителями и сверстниками, промышляет мелким воровством. Однажды, пробравшись на закрытую вечеринку, она знакомится с богатой и эффектной Луизой — вампиром, главенствующим в трио себе подобных существ, куда также входят бесшабашная Нора и томная Шарлотта. Луиза решает приобщить закомплексованную и зажатую девушку к своей банде. Теперь Лине суждено познать блеск и проклятие вечной жизни «неупокоенных». Перед ней открываются все двери в мир гламура и беспредельной свободы. И с каждой ночью ее новые подруги становятся все ненасытнее, а число жертв вурдалаков безудержно растет. Но когда за расследование их преступлений берется давний знакомый Лины — молодой полицейский Том Сернер, приходит пора платить по счетам…

Продолжительность: 01:39:41
Качество видео: BDRip
Видеокодек: MPEG-4 AVC/H.264
Битрейт видео: ~8226 Кбит/с
Размер кадра: 1920x816
Аудио 1: Русский AC3, 6 ch, 384 Кбит/с | Дубляж
Аудио 2: Немецкий DTS, 6 ch, 1510 Кбит/с | Оригинал-

Знаете ли вы, что...

- Для съемок фильма было приготовлено тридцать литров искусственной крови.
- Съемки фильма продолжались 48 дней.
- Автомобильный номер Норы - FU: CK 1.
- Надпись на потолке в тюремной камере гласит: "Вы находитесь в камере номер 38. Нойкельн. Берлин. Германия. Европа. Земля").
-

MediaInfo:

General
Complete name : O:\Vkus.nochi.2010.x264.BDRip.1080p.mkv
Format : Matroska
File size : 7.19 GiB
Duration : 1h 39mn
Overall bit rate : 10.3 Mbps
Movie name : Wir sind die Nacht. 2010. BDRip (1080p)
Encoded date : UTC 2011-07-18 14:38:58
Writing application : mkvmerge v4.9.1 ('Ich will') сборка от Jul 11 2011 23:53:15
Writing library : libebml v1.2.1 + libmatroska v1.1.1
Video
ID : 1
Format : AVC
Format/Info : Advanced Video Codec
Format profile : High@L4.1
Format settings, CABAC : Yes
Format settings, ReFrames : 5 frames
Muxing mode : Container profile=Unknown@4.1
Codec ID : V_MPEG4/ISO/AVC
Duration : 1h 39mn
Bit rate : 8 226 Kbps
Width : 1 920 pixels
Height : 816 pixels
Display aspect ratio : 2.35:1
Frame rate : 24.000 fps
Resolution : 8 bits
Colorimetry : 4:2:0
Scan type : Progressive
Bits/(Pixel*Frame) : 0.219
Stream size : 5.73 GiB (80%)
Title : Wir sind die Nacht. 2010. BDRip (1080p)
Writing library : x264 core 114 r1913 5fd3dce
Encoding settings : cabac=1 / ref=5 / deblock=1:0:0 / analyse=0x3:0x113 / me=umh / subme=7 / psy=1 / psy_rd=1.00:0.00 / mixed_ref=1 / me_range=16 / chroma_me=1 / trellis=1 / 8x8dct=1 / cqm=0 / deadzone=21,11 / fast_pskip=0 / chroma_qp_offset=-2 / threads=6 / sliced_threads=0 / nr=0 / decimate=1 / interlaced=0 / constrained_intra=0 / bframes=3 / b_pyramid=2 / b_adapt=1 / b_bias=0 / direct=1 / weightb=1 / open_gop=0 / weightp=2 / keyint=250 / keyint_min=24 / scenecut=40 / intra_refresh=0 / rc_lookahead=40 / rc=crf / mbtree=1 / crf=20.0 / qcomp=0.60 / qpmin=0 / qpmax=69 / qpstep=4 / ip_ratio=1.40 / aq=1:1.00
Language : German
Audio #1
ID : 2
Format : AC-3
Format/Info : Audio Coding 3
Codec ID : A_AC3
Duration : 1h 39mn
Bit rate mode : Constant
Bit rate : 384 Kbps
Channel(s) : 6 channels
Channel positions : Front: L C R, Surround: L R, LFE
Sampling rate : 48.0 KHz
Stream size : 274 MiB (4%)
Title : DUB (AC3 5.1 384 kbps)
Language : Russian
Audio #2
ID : 3
Format : DTS
Format/Info : Digital Theater Systems
Codec ID : A_DTS
Duration : 1h 39mn
Bit rate mode : Constant
Bit rate : 1 510 Kbps
Channel(s) : 6 channels
Channel positions : Front: L C R, Surround: L R, LFE
Sampling rate : 48.0 KHz
Resolution : 24 bits
Stream size : 1.05 GiB (15%)
Title : DTS 5.1 1510 kbps)
Language : German
Text #1
ID : 4
Format : UTF-8
Codec ID : S_TEXT/UTF8
Codec ID/Info : UTF-8 Plain Text
Language : Russian
Text #2
ID : 5
Format : UTF-8
Codec ID : S_TEXT/UTF8
Codec ID/Info : UTF-8 Plain Text
Text #3
ID : 6
Format : UTF-8
Codec ID : S_TEXT/UTF8
Codec ID/Info : UTF-8 Plain Text
Language : German
-Скриншоты:

[Цитировать]



Показать сообщения:    

Текущее время: 20-Авг 00:50

Часовой пояс: UTC + 6


Вы не можете начинать темы
Вы не можете отвечать на сообщения
Вы не можете редактировать свои сообщения
Вы не можете удалять свои сообщения
Вы не можете голосовать в опросах
Вы не можете прикреплять файлы к сообщениям
Вы не можете скачивать файлы

!ВНИМАНИЕ!
Сайт не предоставляет электронные версии произведений, а занимается лишь коллекционированием и каталогизацией ссылок, присылаемых и публикуемых на форуме нашими читателями. Если вы являетесь правообладателем какого-либо представленного материала и не желаете, чтобы ссылка на него находилась в нашем каталоге, свяжитесь с нами, и мы незамедлительно удалим ее. Файлы для обмена на трекере предоставлены пользователями сайта, и администрация не несет ответственности за их содержание. Просьба не заливать файлы, защищенные авторскими правами, а также файлы нелегального содержания!