[ Сегодня идет свободное скачивание без начисления Download ]


Статистика раздачи
Нет
 
   
 
Top  
 
 
-Похмельные игры / The Hungover Games - Год выпуска: 2014
Производство: США / Sense and Sensibility Ventures
Жанр: Комедия
Перевод: Многоголосый закадровый, профессиональный
Субтитры: Отсутствуют
Дата мировой премьеры: 11 февраля 2014
Режиссер: Джош Столберг
Продюсер: Джим Басфилд, Бен Фейнголд, Джейми Кеннеди
Актеры: Росс Нэйтан, Сэм Пэнкейк, Бен Бегли, Рассел Харпер, Джон Ливингстон, Дэмиен Брэй, Тара Рид, Джейми Кеннеди, Шанель Гейнс
Описание фильма:
После празднования предстоящей свадьбы Доуга в отеле в Лафлине, штат Невада, Брэдли, Эд и Зак приходят в себя в футуристической антиутопии, потеряв своего друга — Доуга.

Продолжительность: 01:25:01
Качество видео: WEB-DLRip
Видеокодек: Xvid
Битрейт видео: ~1003 Kbit/s
Размер кадра: 704 x 400
Аудиокодек: AC3 2.0
Битрейт аудио: 128 Kbit/s

MediaInfo

Общее
Полное имя                       : D:\Торренты\Похмельные игры.2014.WEB-DLRip.avi
Формат                           : AVI
Формат/Информация                : Audio Video Interleave
Размер файла                     : 698 Мбайт
Продолжительность                : 1 ч. 25 м.
Общий поток                      : 1140 Кбит/сек
Программа кодирования            : VirtualDubMod 1.5.10.2 (build 2540/release)
Библиотека кодирования           : VirtualDubMod build 2540/release
Видео
Идентификатор                    : 0
Формат                           : MPEG-4 Visual
Профиль формата                  : Advanced Simple@L5
Параметр BVOP формата            : 2
Параметр QPel формата            : Нет
Параметр GMC формата             : Без точки перехода
Параметр матрицы формата         : Default (H.263)
Режим смешивания                 : Сжатый битовый поток
Идентификатор кодека             : XVID
Идентификатор кодека/Подсказка   : XviD
Продолжительность                : 1 ч. 25 м.
Битрейт                          : 1003 Кбит/сек
Ширина                           : 704 пикс.
Высота                           : 400 пикс.
Соотношение сторон               : 16:9
Частота кадров                   : 23,976 кадр/сек
Цветовое пространство            : YUV
Подвыборка цветности             : 4:2:0
Битовая глубина                  : 8 бит
Тип развёртки                    : Прогрессивная
Метод сжатия                     : С потерями
Бит/(Пиксели*Кадры)              : 0.149
Размер потока                    : 614 Мбайт (88%)
Библиотека кодирования           : XviD 64
Аудио
Идентификатор                    : 1
Формат                           : AC-3
Формат/Информация                : Audio Coding 3
Расширение режима                : CM (complete main)
Идентификатор кодека             : 2000
Продолжительность                : 1 ч. 25 м.
Вид битрейта                     : Постоянный
Битрейт                          : 128 Кбит/сек
Каналы                           : 2 канала
Расположение каналов             : Front: L R
Частота                          : 48,0 КГц
Битовая глубина                  : 16 бит
Метод сжатия                     : С потерями
Размер потока                    : 78,0 Мбайт (11%)
Выравнивание                     : Разделение по промежуткам
Продолжительность промежутка     : 42  мс. (1,00 видеокадр)
Время предзагрузки промежутка    : 500 ms

[Цитировать]



Показать сообщения:    

Текущее время: 19-Авг 02:14

Часовой пояс: UTC + 6


Вы не можете начинать темы
Вы не можете отвечать на сообщения
Вы не можете редактировать свои сообщения
Вы не можете удалять свои сообщения
Вы не можете голосовать в опросах
Вы не можете прикреплять файлы к сообщениям
Вы не можете скачивать файлы

!ВНИМАНИЕ!
Сайт не предоставляет электронные версии произведений, а занимается лишь коллекционированием и каталогизацией ссылок, присылаемых и публикуемых на форуме нашими читателями. Если вы являетесь правообладателем какого-либо представленного материала и не желаете, чтобы ссылка на него находилась в нашем каталоге, свяжитесь с нами, и мы незамедлительно удалим ее. Файлы для обмена на трекере предоставлены пользователями сайта, и администрация не несет ответственности за их содержание. Просьба не заливать файлы, защищенные авторскими правами, а также файлы нелегального содержания!