[ Сегодня идет свободное скачивание без начисления Download ]


Статистика раздачи
Нет
 
   
 
Top  
 
 
-Прогулки с динозаврами 3D / Walking with Dinosaurs 3D (2013) BDRip [1080p]
«Величайшее приключение за 70 миллионов лет»
- Год выпуска: 2013
Производство: США, Великобритания, Индия, Animal Logic, BBC Worldwide
Жанр: Анимация, приключения, семейный
Режиссер: Бэрри Кук, Нил Найтингейл
Продюсер: Майк Дэвлин, Люк Хетерингтон, Аманда Хилл
Актеры: Чарли Роу, Карл Урбан, Ангури Райс, Джон Легуизамо, Джастин Лонг, Скайлер Стоун, Тия Сиркар, Клэй Сэвадж, Джуд Тинсели, Мэри Мэтилин Маусер
Описание фильма:
«Прогулки с динозаврами» — это увлекательное путешествие с полным погружением в 3D-реальность, созданную по инновационной технологии CGI. Мы увидим, как выглядели динозавры, как они жили и с какими опасностями им пришлось столкнуться. Главный герой истории — храбрый динозаврик Патчи, он самый маленький в семье, но именно ему предстоит стать лидером и спасти своих сородичей.
Язык: Русский, Английский
Перевод: Дублированный (Лицензия)
Субтитры: Вшитые отключаемые
Язык субтитров: Английский (full, SDH)
Рейтинг MPAA: PG (рекомендуется присутствие родителей)
Возраст: 0+

Дата мировой премьеры: 14 декабря 2013
Дата российской премьеры: 19 декабря 2013, «Двадцатый Век Фокс СНГ»
Дата выхода DVD релиза: 10 апреля 2014, «Двадцатый Век Фокс СНГ»
Дата выхода Blu-Ray релиза: 10 апреля 2014, «Двадцатый Век Фокс СНГ»
Продолжительность: 01:27:23
Качество видео: BDRip [1080p] [profile-LQ]
Видеокодек: MPEG-4 AVC/H.264
Битрейт видео: ~ 9233 Kbit/s
Размер кадра: 1920x808, 23.976 fps
Аудио #1: AC-3, 48.0 KHz, 6 ch, 448 Kbps, CBR (Русский, Дубляж)
Аудио #2: DTS, 48.0 KHz, 6 ch, 1 510 Kbps, CBR (Английский)
Дополнительно: Сохранены оригинальные чаптеры как на Blu-ray

MediaInfo:

Формат                                   : Matroska
Версия формата                           : Version 2
Размер файла                             : 6,83 Гбайт
Продолжительность                        : 1 ч. 27 м.
Общий поток                              : 11,2 Мбит/сек
Дата кодирования                         : UTC 2014-03-12 20:46:17
Программа кодирования                    : mkvmerge v6.7.0 ('Back to the Ground') 64bit built on Jan  8 2014 15:10:52
Библиотека кодирования                   : libebml v1.3.0 + libmatroska v1.4.1
Видео
Идентификатор                            : 1
Формат                                   : AVC
Формат/Информация                        : Advanced Video Codec
Профиль формата                          : [url=mailto:High@L4.1]High@L4.1[/url]
Параметр CABAC формата                   : Да
Параметр ReFrames формата                : 5 кадров
Идентификатор кодека                     : V_MPEG4/ISO/AVC
Продолжительность                        : 1 ч. 27 м.
Битрейт                                  : 9233 Кбит/сек
Ширина                                   : 1920 пикселей
Высота                                   : 808 пикселей
Соотношение сторон                       : 2,40:1
Режим частоты кадров                     : Постоянный
Частота кадров                           : 23,976 кадра/сек
Цветовое пространство                    : YUV
Субдискретизация насыщенности            : 4:2:0
Битовая глубина                          : 8 бит
Тип развёртки                            : Прогрессивная
Бит/(Пиксели*Кадры)                      : 0.248
Размер потока                            : 5,50 Гбайт (81%)
Библиотека кодирования                   : x264 core 142 r2389 956c8d8
Настройки программы                      : cabac=1 / ref=5 / deblock=1:0:0 / analyse=0x3:0x133 / me=umh / subme=7 / psy=1 / psy_rd=1.00:0.00 / mixed_ref=1 / me_range=16 / chroma_me=1 / trellis=1 / 8x8dct=1 / cqm=0 / deadzone=21,11 / fast_pskip=1 / chroma_qp_offset=-2 / threads=12 / lookahead_threads=2 / sliced_threads=0 / nr=0 / decimate=1 / interlaced=0 / bluray_compat=0 / constrained_intra=0 / bframes=3 / b_pyramid=2 / b_adapt=2 / b_bias=0 / direct=1 / weightb=1 / open_gop=0 / weightp=2 / keyint=250 / keyint_min=23 / scenecut=40 / intra_refresh=0 / rc_lookahead=50 / rc=2pass / mbtree=1 / bitrate=9233 / ratetol=1.0 / qcomp=0.60 / qpmin=0 / qpmax=69 / qpstep=4 / cplxblur=20.0 / qblur=0.5 / ip_ratio=1.40 / aq=1:1.00
Язык                                     : English
Default                                  : Да
Forced                                   : Нет
Аудио #1
Идентификатор                            : 2
Формат                                   : AC-3
Формат/Информация                        : Audio Coding 3
Расширение режима                        : CM (complete main)
Параметр Endianness формата              : Big
Идентификатор кодека                     : A_AC3
Продолжительность                        : 1 ч. 27 м.
Вид битрейта                             : Постоянный
Битрейт                                  : 448 Кбит/сек
Каналы                                   : 6 каналов
Расположение каналов                     : Front: L C R, Side: L R, LFE
Частота                                  : 48,0 КГц
Битовая глубина                          : 16 бит
Метод сжатия                             : С потерями
Размер потока                            : 280 Мбайт (4%)
Язык                                     : Russian
Default                                  : Да
Forced                                   : Нет
Аудио #2
Идентификатор                            : 3
Формат                                   : DTS
Формат/Информация                        : Digital Theater Systems
Режим                                    : 16
Параметр Endianness формата              : Big
Идентификатор кодека                     : A_DTS
Продолжительность                        : 1 ч. 27 м.
Вид битрейта                             : Постоянный
Битрейт                                  : 1509 Кбит/сек
Каналы                                   : 6 каналов
Расположение каналов                     : Front: L C R, Side: L R, LFE
Частота                                  : 48,0 КГц
Битовая глубина                          : 24 бит
Метод сжатия                             : С потерями
Размер потока                            : 943 Мбайт (13%)
Язык                                     : English
Default                                  : Нет
Forced                                   : Нет
Текст #1
Идентификатор                            : 4
Формат                                   : UTF-8
Идентификатор кодека                     : S_TEXT/UTF8
Идентификатор кодека/Информация          : UTF-8 Plain Text
Заголовок                                : English
Default                                  : Да
Forced                                   : Нет
Текст #2
Идентификатор                            : 5
Формат                                   : UTF-8
Идентификатор кодека                     : S_TEXT/UTF8
Идентификатор кодека/Информация          : UTF-8 Plain Text
Заголовок                                : English SDH
Язык                                     : English
Default                                  : Нет
Forced                                   : Нет
Меню
00:00:00.000                             : en:00:00:00.000
00:01:44.771                             : en:00:01:44.771
00:05:21.196                             : en:00:05:21.196
00:07:27.989                             : en:00:07:27.989
00:12:06.351                             : en:00:12:06.351
00:14:47.220                             : en:00:14:47.220
00:17:04.190                             : en:00:17:04.190
00:18:30.609                             : en:00:18:30.609
00:21:47.389                             : en:00:21:47.389
00:24:30.761                             : en:00:24:30.761
00:27:07.459                             : en:00:27:07.459
00:28:28.206                             : en:00:28:28.206
00:30:40.756                             : en:00:30:40.756
00:32:58.643                             : en:00:32:58.643
00:37:38.006                             : en:00:37:38.006
00:42:02.562                             : en:00:42:02.562
00:44:00.096                             : en:00:44:00.096
00:47:36.103                             : en:00:47:36.103
00:50:59.473                             : en:00:50:59.473
00:52:51.043                             : en:00:52:51.043
00:56:49.281                             : en:00:56:49.281
00:58:20.997                             : en:00:58:20.997
01:02:48.973                             : en:01:02:48.973
01:06:45.627                             : en:01:06:45.627
01:10:40.319                             : en:01:10:40.319
01:16:54.485                             : en:01:16:54.485
01:18:40.466                             : en:01:18:40.466
01:20:15.811                             : en:01:20:15.811
Скриншоты:

[Цитировать]



Показать сообщения:    

Текущее время: 21-Авг 01:21

Часовой пояс: UTC + 6


Вы не можете начинать темы
Вы не можете отвечать на сообщения
Вы не можете редактировать свои сообщения
Вы не можете удалять свои сообщения
Вы не можете голосовать в опросах
Вы не можете прикреплять файлы к сообщениям
Вы не можете скачивать файлы

!ВНИМАНИЕ!
Сайт не предоставляет электронные версии произведений, а занимается лишь коллекционированием и каталогизацией ссылок, присылаемых и публикуемых на форуме нашими читателями. Если вы являетесь правообладателем какого-либо представленного материала и не желаете, чтобы ссылка на него находилась в нашем каталоге, свяжитесь с нами, и мы незамедлительно удалим ее. Файлы для обмена на трекере предоставлены пользователями сайта, и администрация не несет ответственности за их содержание. Просьба не заливать файлы, защищенные авторскими правами, а также файлы нелегального содержания!