[ Сегодня идет свободное скачивание без начисления Download ]


Статистика раздачи
Нет
 
   
 
Top  
 
 
-Облачно, возможны осадки: Месть ГМО / Cloudy with a Chance of Meatballs 2 (2013) BDRip [720p]- Год выпуска: 2013
Производство: США, Columbia Pictures, Sony Pictures Animation, Sony Pictures
Жанр: Фэнтези, Комедия, Семейный
Дата мировой премьеры: 26 сентября 2013
Дата российской премьеры: 24 октября 2013, «WDSSPR»
Дата выхода DVD релиза: 11 февраля 2014, «Columbia/Sony»
Описание:Все жители острова Поплавок покинули родной дом после событий предыдущего мультфильма. Главный герой Флинт Локвуд теперь работает в компании The Live Corp на своего кумира Честера. Но ему придется оставить свой пост когда он узнает, что его печально-известная машина все ещё работает и производит на свет опасных гибридов. Флинту предстоит ещё раз спасти мир и не дать коварной машине распространить громадную еду по всему миру.
Режиссер: Коуди Камерон, Крис Пирн
Продюсер: Кирк Бодифелт, Крис Джун, Фил Лорд
Персонажи: Билл Хейдер, Анна Фэрис, Джеймс Каан, Уилл Форте, Энди Сэмберг, Бенджамин Брэтт, Нил Патрик Харрис, Терри Крюс, Кристен Шол, Коуди Камерон
Продолжительность: 01:34:49
Качество видео: BDRip [720p]
Перевод: Дублированный [Лицензия]
Вид субтитров: Вшитые отключаемые
Язык субтитров: Русский, английский
Видеокодек: MPEG-4 AVC/H.264
Битрейт видео: ~5352 Kbps
Размер кадра: 1280x534
Аудио #1: Русский: AC3, 6 ch, 640 Kbps
Аудио #2: Английский: AC3, 6 ch, 640 Kbps
Сэмпл: Ссылка

MediaInfo

Общее
Уникальный идентификатор : 208662181280375947496701853856695526113 (0x9CFADFD35D1847E1B0469D97E73322E1)
Полное имя : E:\Фильмы\Oblachno.Mest.GMO.2013.D.BDRip.720p.mkv
Формат : Matroska
Версия формата : Version 4 / Version 2
Размер файла : 4,39 Гбайт
Продолжительность : 1 ч. 34 м.
Общий поток : 6635 Кбит/сек
Название фильма : HELLYWOOD - rip by potroks
Дата кодирования : UTC 2014-02-05 12:29:50
Программа кодирования : mkvmerge v5.9.0 ('On The Loose') built on Dec 15 2012 16:39:58
Библиотека кодирования : libebml v1.3.0 + libmatroska v1.4.0
Видео
Идентификатор : 1
Формат : AVC
Формат/Информация : Advanced Video Codec
Профиль формата : High@L4.1
Параметр CABAC формата : Да
Параметр ReFrames формата : 8 кадров
Идентификатор кодека : V_MPEG4/ISO/AVC
Продолжительность : 1 ч. 34 м.
Битрейт : 5352 Кбит/сек
Ширина : 1280 пикселей
Высота : 534 пикселя
Соотношение сторон : 2,40:1
Режим частоты кадров : Постоянный
Частота кадров : 23,976 кадра/сек
Цветовое пространство : YUV
Субдискретизация насыщенности : 4:2:0
Битовая глубина : 8 бит
Тип развёртки : Прогрессивная
Бит/(Пиксели*Кадры) : 0.327
Размер потока : 3,46 Гбайт (79%)
Заголовок : Cloudy with a Chance of Meatballs 2
Библиотека кодирования : x264 core 130 r2273 b3065e6
Настройки программы : cabac=1 / ref=8 / deblock=1:-1:-1 / analyse=0x3:0x133 / me=umh / subme=11 / psy=1 / psy_rd=1.00:0.00 / mixed_ref=1 / me_range=32 / chroma_me=1 / trellis=2 / 8x8dct=1 / cqm=0 / deadzone=21,11 / fast_pskip=0 / chroma_qp_offset=-2 / threads=6 / lookahead_threads=8 / sliced_threads=0 / nr=0 / decimate=0 / interlaced=0 / bluray_compat=0 / constrained_intra=0 / bframes=9 / b_pyramid=2 / b_adapt=2 / b_bias=0 / direct=3 / weightb=1 / open_gop=0 / weightp=2 / keyint=240 / keyint_min=23 / scenecut=40 / intra_refresh=0 / rc_lookahead=60 / rc=2pass / mbtree=0 / bitrate=5352 / ratetol=1.0 / qcomp=0.70 / qpmin=0 / qpmax=69 / qpstep=4 / cplxblur=20.0 / qblur=0.5 / vbv_maxrate=50000 / vbv_bufsize=62500 / nal_hrd=none / ip_ratio=1.35 / pb_ratio=1.25 / aq=1:0.70
Язык : English
Default : Да
Forced : Нет
Аудио #1
Идентификатор : 2
Формат : AC-3
Формат/Информация : Audio Coding 3
Расширение режима : CM (complete main)
Параметр Endianness формата : Big
Идентификатор кодека : A_AC3
Продолжительность : 1 ч. 34 м.
Вид битрейта : Постоянный
Битрейт : 640 Кбит/сек
Каналы : 6 каналов
Расположение каналов : Front: L C R, Side: L R, LFE
Частота : 48,0 КГц
Битовая глубина : 16 бит
Метод сжатия : С потерями
Размер потока : 434 Мбайт (10%)
Заголовок : Dub | DD 5.1 @ 640 kbps - BD CEE
Язык : Russian
Default : Да
Forced : Да
Аудио #2
Идентификатор : 3
Формат : AC-3
Формат/Информация : Audio Coding 3
Расширение режима : CM (complete main)
Параметр Endianness формата : Big
Идентификатор кодека : A_AC3
Продолжительность : 1 ч. 34 м.
Вид битрейта : Постоянный
Битрейт : 640 Кбит/сек
Каналы : 6 каналов
Расположение каналов : Front: L C R, Side: L R, LFE
Частота : 48,0 КГц
Битовая глубина : 16 бит
Метод сжатия : С потерями
Размер потока : 434 Мбайт (10%)
Заголовок : Original | DD 5.1 @ 640 kbps
Язык : English
Default : Нет
Forced : Нет
Текст #1
Идентификатор : 4
Формат : UTF-8
Идентификатор кодека : S_TEXT/UTF8
Идентификатор кодека/Информация : UTF-8 Plain Text
Язык : Russian
Default : Нет
Forced : Нет
Текст #2
Идентификатор : 5
Формат : UTF-8
Идентификатор кодека : S_TEXT/UTF8
Идентификатор кодека/Информация : UTF-8 Plain Text
Заголовок : Full
Язык : English
Default : Нет
Forced : Нет
Текст #3
Идентификатор : 6
Формат : UTF-8
Идентификатор кодека : S_TEXT/UTF8
Идентификатор кодека/Информация : UTF-8 Plain Text
Заголовок : SDH
Язык : English
Default : Нет
Forced : Нет
Текст #4
Идентификатор : 7
Формат : UTF-8
Идентификатор кодека : S_TEXT/UTF8
Идентификатор кодека/Информация : UTF-8 Plain Text
Заголовок : SDH-Colored
Язык : English
Default : Нет
Forced : Нет
Меню
00:00:00.000 : en:(01)00:00:00:000
00:07:12.014 : en:(02)00:07:12:014
00:12:51.520 : en:(03)00:12:51:520
00:18:50.420 : en:(04)00:18:50:420
00:25:58.390 : en:(05)00:25:58:390
00:31:57.081 : en:(06)00:31:57:081
00:36:53.252 : en:(07)00:36:53:252
00:39:28.908 : en:(08)00:39:28:908
00:41:07.840 : en:(09)00:41:07:840
00:45:28.016 : en:(10)00:45:28:016
00:49:48.694 : en:(11)00:49:48:694
00:54:41.403 : en:(12)00:54:41:403
01:00:39.886 : en:(13)01:00:39:886
01:06:47.920 : en:(14)01:06:47:920
01:12:54.953 : en:(15)01:12:54:953
01:21:25.589 : en:(16)01:21:25:589
Скриншоты:

[Цитировать]



Показать сообщения:    

Текущее время: 21-Авг 16:25

Часовой пояс: UTC + 6


Вы не можете начинать темы
Вы не можете отвечать на сообщения
Вы не можете редактировать свои сообщения
Вы не можете удалять свои сообщения
Вы не можете голосовать в опросах
Вы не можете прикреплять файлы к сообщениям
Вы не можете скачивать файлы

!ВНИМАНИЕ!
Сайт не предоставляет электронные версии произведений, а занимается лишь коллекционированием и каталогизацией ссылок, присылаемых и публикуемых на форуме нашими читателями. Если вы являетесь правообладателем какого-либо представленного материала и не желаете, чтобы ссылка на него находилась в нашем каталоге, свяжитесь с нами, и мы незамедлительно удалим ее. Файлы для обмена на трекере предоставлены пользователями сайта, и администрация не несет ответственности за их содержание. Просьба не заливать файлы, защищенные авторскими правами, а также файлы нелегального содержания!