[ Сегодня идет свободное скачивание без начисления Download ]


Статистика раздачи
Нет
 
   
 
Top  
 
 
-Принцесса и нищий / Il principe abusivo (2013) BDRip- Год выпуска: 2013
Производство: Италия
Жанр: Комедия
Режиссер: Алессандро Сиани
Продюсер: Марко Кименц, Джованни Стабилини, Риккардо Тоцци
Актеры: Алессандро Сиани, Кристиан Де Сика, Сара Фельбербаум, Серена Аутьери, Марко Мессери, Алан Капелли Гетц, Сальваторе Мистиконе, Нэлло Иорио, Августо Форнари
Описание фильма:
Что делать, если ты принцесса маленького европейского княжества, если твой отец увлечен только эротикой в интернете, а о тебе не пишет пресса, потому что ты занимаешься открытием ветеринарных лечебниц? Правильно! Устроить небольшой скандальчик! Или очень большой скандал! Принцесса по совету дворецкого находит самого никчемного жителя княжества, молодого балбеса Антонио и притворяется, что влюбилась в него! Они гуляют по улицам, ужинают в ресторане, а специально предупрежденные папарацци снимают их! Это скандал! Принцесса выходит замуж за нищего. Принцесса добилась своего, но что теперь делать с Антонио?
Перевод: Профессиональный (многоголосный)
Язык субтитров: Английский, итальянский
Вид субтитров: Вшитые (отключаемые)

Дата мировой премьеры: 14 февраля 2013
Дата Российской премьеры: 26 июня 2014
Продолжительность: 01:41:54
Качество видео: BDRip (720p)
Видеокодек: MPEG-4 AVC
Битрейт видео: ~5010 Кбит/с
Размер кадра: 1280x544
Аудио:
1. АС3, 2 ch, 192 Кбит/с - русский
2. АС3, 6 ch, 640 Кбит/с - итальянский

MediaInfo:

Общее
Уникальный идентификатор : 223046802680775186973717859212839948579 (0xA7CD406AB5E5EA1AAA674B80B2651123)
Полное имя : C:\NNM\Принцесса и нищий\Princessa i nishij 2013 BDRip 720p.mkv
Формат : Matroska
Версия формата : Version 2
Размер файла : 4,15 Гбайт
Продолжительность : 1 ч. 41 м.
Общий поток : 5837 Кбит/сек
Программа кодирования : mkvmerge v4.0.0 ('The Stars were mine') сборка от Jun 6 2010 16:18:42
Библиотека кодирования : libebml v1.0.0 + libmatroska v1.0.0
Видео
Идентификатор : 1
Формат : AVC
Формат/Информация : Advanced Video Codec
Профиль формата : High@L4.1
Параметр CABAC формата : Да
Параметр ReFrames формата : 5 кадров
Идентификатор кодека : V_MPEG4/ISO/AVC
Продолжительность : 1 ч. 41 м.
Битрейт : 5010 Кбит/сек
Ширина : 1280 пикселей
Высота : 544 пикселя
Соотношение сторон : 2,35:1
Частота кадров : 24,000 кадра/сек
Цветовое пространство : YUV
Субдискретизация насыщенности : 4:2:0
Битовая глубина : 8 бит
Тип развёртки : Прогрессивная
Бит/(Пиксели*Кадры) : 0.300
Размер потока : 3,48 Гбайт (84%)
Заголовок : EgL
Библиотека кодирования : x264 core 130 r2273 b3065e6
Настройки программы : cabac=1 / ref=5 / deblock=1:0:0 / analyse=0x3:0x133 / me=umh / subme=10 / psy=1 / psy_rd=1.00:0.15 / mixed_ref=1 / me_range=32 / chroma_me=1 / trellis=2 / 8x8dct=1 / cqm=0 / deadzone=21,11 / fast_pskip=0 / chroma_qp_offset=-3 / threads=6 / lookahead_threads=1 / sliced_threads=0 / nr=0 / decimate=1 / interlaced=0 / bluray_compat=0 / constrained_intra=0 / bframes=3 / b_pyramid=2 / b_adapt=2 / b_bias=0 / direct=3 / weightb=1 / open_gop=0 / weightp=2 / keyint=240 / keyint_min=24 / scenecut=40 / intra_refresh=0 / rc=2pass / mbtree=0 / bitrate=5010 / ratetol=2.0 / qcomp=0.60 / qpmin=10 / qpmax=51 / qpstep=4 / cplxblur=20.0 / qblur=0.5 / ip_ratio=1.40 / pb_ratio=1.00 / aq=1:1.00
Язык : English
Default : Нет
Forced : Нет
Аудио #1
Идентификатор : 2
Формат : AC-3
Формат/Информация : Audio Coding 3
Расширение режима : CM (complete main)
Идентификатор кодека : A_AC3
Продолжительность : 1 ч. 41 м.
Вид битрейта : Постоянный
Битрейт : 192 Кбит/сек
Каналы : 2 канала
Расположение каналов : Front: L R
Частота : 48,0 КГц
Битовая глубина : 16 бит
Метод сжатия : С потерями
Размер потока : 140 Мбайт (3%)
Язык : Russian
Default : Да
Forced : Да
Аудио #2
Идентификатор : 3
Формат : AC-3
Формат/Информация : Audio Coding 3
Расширение режима : CM (complete main)
Идентификатор кодека : A_AC3
Продолжительность : 1 ч. 41 м.
Вид битрейта : Постоянный
Битрейт : 640 Кбит/сек
Каналы : 6 каналов
Расположение каналов : Front: L C R, Side: L R, LFE
Частота : 48,0 КГц
Битовая глубина : 16 бит
Метод сжатия : С потерями
Размер потока : 466 Мбайт (11%)
Заголовок : Italiano AC3
Язык : Italian
Default : Нет
Forced : Нет
Текст #1
Идентификатор : 4
Формат : UTF-8
Идентификатор кодека : S_TEXT/UTF8
Идентификатор кодека/Информация : UTF-8 Plain Text
Заголовок : Inglese
Язык : English
Default : Нет
Forced : Нет
Текст #2
Идентификатор : 5
Формат : UTF-8
Идентификатор кодека : S_TEXT/UTF8
Идентификатор кодека/Информация : UTF-8 Plain Text
Заголовок : Italiano
Язык : Italian
Default : Нет
Forced : Нет
Скриншоты: Время раздачи: Круглосуточно до 10 скачавших

[Цитировать]

Топик был перенесен из форума Новинки кинопроката 2016 (HD Video) в форум Архив
D-r Woland_kz



Показать сообщения:    

Текущее время: 20-Авг 02:44

Часовой пояс: UTC + 6


Вы не можете начинать темы
Вы не можете отвечать на сообщения
Вы не можете редактировать свои сообщения
Вы не можете удалять свои сообщения
Вы не можете голосовать в опросах
Вы не можете прикреплять файлы к сообщениям
Вы не можете скачивать файлы

!ВНИМАНИЕ!
Сайт не предоставляет электронные версии произведений, а занимается лишь коллекционированием и каталогизацией ссылок, присылаемых и публикуемых на форуме нашими читателями. Если вы являетесь правообладателем какого-либо представленного материала и не желаете, чтобы ссылка на него находилась в нашем каталоге, свяжитесь с нами, и мы незамедлительно удалим ее. Файлы для обмена на трекере предоставлены пользователями сайта, и администрация не несет ответственности за их содержание. Просьба не заливать файлы, защищенные авторскими правами, а также файлы нелегального содержания!