[ Сегодня идет свободное скачивание без начисления Download ]


Статистика раздачи
Нет
 
   
 
Top  
 
 
-Лето в Провансе (Совет мистраля) / Avis de mistral (2014) BDRip- Год выпуска: 2014
Производство: Франция - L?gende Films, Gaumont, France 2 Cin?ma
Жанр: Драма, комедия
Перевод: Одноголосый закадровый, любьсителкий |Lord32x|
Субтитры: Вшитые отключаемые
Язык субтитров: Русский, английский, французский
Режиссер: Роза Бош
Актеры: Жан Рено, Анна Гальена, Хло Жуанне, Юго Дессью, Ор Атика, Лука Пелиссье, Том Либ, Жан-Мишель Нуаре, Юг Офрей, Шарлотта де Тюркейм, Фабьян Байярди, Лоран Фернандес
Описание фильма:
Лея, Адриан и их глухонемой братишка Тео отправляются на лето в Прованс - к дедушке Полю, которого они никогда не видели раньше из-за старой семейной ссоры. Это совсем не то, о чем они мечтали на каникулах. Но их мать пытается получить престижную работу в далеком Монреале, а отец недавно ушел из семьи. Так что столкновение двух, таких не похожих друг на друга поколений - неизбежно.

Дата мировой премьеры: 2 апреля 2014
Продолжительность: 01:43:54
Качество видео: BDRip 1080p
Видеокодек: MPEG-4 AVC/H.264
Видео: H264, 8265 Кбит/с, 1920x808, 24,000 кадра/с
Аудио #1: Русский: DTS, 5.1, 768 Кбит/с, 48kHz, 16 bit
Аудио #2: Русский: AC3, 5.1, 448 Кбит/с, 48kHz, 16 bit
Аудио #3: Французский: DTS, 5.1, 768 Кбит/с, 48 kHz, 24 bit
Сохранены оригинальные чаптеры как на Blu-Ray

MediaInfo:

Общее
Уникальный идентификатор : 182721907380708854152081282929475244962 (0x8976F594293056ABBF5F78393ACCD3A2)
Полное имя : D:\Video\Avis.De.Mistral.2014.1080p.mkv
Формат : Matroska
Версия формата : Version 2
Размер файла : 7,43 Гбайт
Продолжительность : 1 ч. 43 м.
Общий поток : 10,2 Мбит/сек
Название фильма : ~V~
Дата кодирования : UTC 2014-09-05 18:59:16
Программа кодирования : mkvmerge v6.1.0 ('Old Devil') built on Mar 4 2013 09:10:42
Библиотека кодирования : libebml v1.3.0 + libmatroska v1.4.0
Attachment : Yes
Видео
Идентификатор : 1
Формат : AVC
Формат/Информация : Advanced Video Codec
Профиль формата : High@L4.1
Параметр CABAC формата : Да
Параметр ReFrames формата : 5 кадров
Идентификатор кодека : V_MPEG4/ISO/AVC
Продолжительность : 1 ч. 43 м.
Битрейт : 8265 Кбит/сек
Ширина : 1920 пикселей
Высота : 808 пикселей
Соотношение сторон : 2,40:1
Частота кадров : 24,000 кадра/сек
Цветовое пространство : YUV
Субдискретизация насыщенности : 4:2:0
Битовая глубина : 8 бит
Тип развёртки : Прогрессивная
Бит/(Пиксели*Кадры) : 0.222
Размер потока : 5,86 Гбайт (79%)
Библиотека кодирования : x264 core 142 r2453 ea0ca51
Настройки программы : cabac=1 / ref=5 / deblock=1:0:0 / analyse=0x3:0x113 / me=umh / subme=8 / psy=1 / psy_rd=1.00:0.00 / mixed_ref=1 / me_range=16 / chroma_me=1 / trellis=1 / 8x8dct=1 / cqm=0 / deadzone=21,11 / fast_pskip=1 / chroma_qp_offset=-2 / threads=12 / lookahead_threads=2 / sliced_threads=0 / nr=0 / decimate=1 / interlaced=0 / bluray_compat=0 / constrained_intra=0 / bframes=3 / b_pyramid=2 / b_adapt=2 / b_bias=0 / direct=3 / weightb=1 / open_gop=0 / weightp=2 / keyint=240 / keyint_min=24 / scenecut=40 / intra_refresh=0 / rc_lookahead=50 / rc=2pass / mbtree=1 / bitrate=8265 / ratetol=1.0 / qcomp=0.60 / qpmin=0 / qpmax=69 / qpstep=4 / cplxblur=20.0 / qblur=0.5 / ip_ratio=1.40 / aq=1:1.00
Язык : English
Default : Да
Forced : Нет
Аудио #1
Идентификатор : 2
Формат : DTS
Формат/Информация : Digital Theater Systems
Идентификатор кодека : A_DTS
Продолжительность : 1 ч. 43 м.
Вид битрейта : Постоянный
Битрейт : 755 Кбит/сек
Каналы : 6 каналов
Расположение каналов : Front: L C R, Side: L R, LFE
Частота : 48,0 КГц
Битовая глубина : 24 бит
Метод сжатия : С потерями
Размер потока : 561 Мбайт (7%)
Заголовок : ЛО"Lord32x"
Язык : Russian
Default : Да
Forced : Да
Аудио #2
Идентификатор : 3
Формат : AC-3
Формат/Информация : Audio Coding 3
Расширение режима : CM (complete main)
Идентификатор кодека : A_AC3
Продолжительность : 1 ч. 43 м.
Вид битрейта : Постоянный
Битрейт : 448 Кбит/сек
Каналы : 6 каналов
Расположение каналов : Front: L C R, Side: L R, LFE
Частота : 48,0 КГц
Битовая глубина : 16 бит
Метод сжатия : С потерями
Размер потока : 333 Мбайт (4%)
Заголовок : ЛО"Lord32x"
Язык : Russian
Default : Нет
Forced : Нет
Аудио #3
Идентификатор : 4
Формат : DTS
Формат/Информация : Digital Theater Systems
Идентификатор кодека : A_DTS
Продолжительность : 1 ч. 43 м.
Вид битрейта : Постоянный
Битрейт : 755 Кбит/сек
Каналы : 6 каналов
Расположение каналов : Front: L C R, Side: L R, LFE
Частота : 48,0 КГц
Битовая глубина : 24 бит
Метод сжатия : С потерями
Размер потока : 561 Мбайт (7%)
Заголовок : French
Язык : French
Default : Нет
Forced : Нет
Текст #1
Идентификатор : 5
Формат : UTF-8
Идентификатор кодека : S_TEXT/UTF8
Идентификатор кодека/Информация : UTF-8 Plain Text
Заголовок : Russian
Язык : Russian
Default : Нет
Forced : Нет
Текст #2
Идентификатор : 6
Формат : UTF-8
Идентификатор кодека : S_TEXT/UTF8
Идентификатор кодека/Информация : UTF-8 Plain Text
Заголовок : English
Язык : English
Default : Нет
Forced : Нет
Текст #3
Идентификатор : 7
Формат : UTF-8
Идентификатор кодека : S_TEXT/UTF8
Идентификатор кодека/Информация : UTF-8 Plain Text
Заголовок : French Forced
Язык : French
Default : Нет
Forced : Нет
Меню
00:00:00.000 : en:00:00:00.000
00:08:25.000 : en:00:08:25.000
00:17:56.875 : en:00:17:56.875
00:26:40.333 : en:00:26:40.333
00:35:41.000 : en:00:35:41.000
00:43:50.917 : en:00:43:50.917
00:53:25.333 : en:00:53:25.333
01:02:54.708 : en:01:02:54.708
01:11:37.583 : en:01:11:37.583
01:20:20.792 : en:01:20:20.792
01:28:46.583 : en:01:28:46.583
01:36:24.000 : en:01:36:24.000
Скриншоты:

[Цитировать]



Показать сообщения:    

Текущее время: 25-Июл 16:49

Часовой пояс: UTC + 6


Вы не можете начинать темы
Вы не можете отвечать на сообщения
Вы не можете редактировать свои сообщения
Вы не можете удалять свои сообщения
Вы не можете голосовать в опросах
Вы не можете прикреплять файлы к сообщениям
Вы не можете скачивать файлы

!ВНИМАНИЕ!
Сайт не предоставляет электронные версии произведений, а занимается лишь коллекционированием и каталогизацией ссылок, присылаемых и публикуемых на форуме нашими читателями. Если вы являетесь правообладателем какого-либо представленного материала и не желаете, чтобы ссылка на него находилась в нашем каталоге, свяжитесь с нами, и мы незамедлительно удалим ее. Файлы для обмена на трекере предоставлены пользователями сайта, и администрация не несет ответственности за их содержание. Просьба не заливать файлы, защищенные авторскими правами, а также файлы нелегального содержания!