[ Сегодня идет свободное скачивание без начисления Download ]


Статистика раздачи
Нет
 
   
 
Top  
 
 
-Двойник / The Double (2013) BDRip- Год выпуска: 2013
Производство: Великобритания - Alcove Entertainment, Attercop Productions, British Film Institute (BFI)
Жанр: Триллер, драма
Перевод: Многоголосый закадровый, профессиональный
Субтитры: Вшитые отключаемые
Язык субтитров: Русский, английский, английский (SDH)
Дата мировой премьеры: 7 сентября 2013
Дата российской премьеры: 1 мая 2014, «Премиум Фильм»
Дата выхода DVD релиза: 31 июля 2014, «CP Дистрибуция»
Режиссер: Ричард Айоади
Продюсер: Амина Дасмал, Робин Фокс, Майкл Кейн
Актеры: Джесси Айзенберг, Миа Васиковска, Уоллес Шоун, Ясмин Пейдж, Ноа Тейлор, Джеймс Фокс, Кэти Мориарти, Филлис Соммервиль, Гэбриэлль Дауни, Джон Коркс
Описание фильма:
Саймон Джеймс – простой работяга, скромный и непримечательный. Его беда в том, что он тихоня, его попросту никто не замечает, а значит, не оценивает по заслугам, даже девушка, с которой он мечтает познакомиться поближе, его игнорирует. И надо же было случиться такому невероятному событию – в контору, где работал Саймон, устроился человек, в точности похожий на Саймона, просто клон. Но коллеги даже не заметили этого сходства просто потому, что у двойника совершенно противоположный характер – он горячий мачо, харизматичный, где-то нахальный тип. Этому счастливчику удается все, в чем Саймон не может преуспеть. Так незаметно, но напористо клон начал забирать у Саймона его личную жизнь.

Продолжительность: 01:33:14
Качество видео: BDRip 1080p
Видеокодек: MPEG-4 AVC/H.264
Битрейт видео: H264, 13.8 Мбит/с, 1920x1036, 23.976 кадр/с
Аудио #1: Русский: AC3, 5.1, 640 Кбит/с, 48kHz, 16 bit
Аудио #2: Английский: DTS, 5.1, 768 Кбит/с, 48 kHz, 24 bit
Сохранены оригинальные чаптеры как на Blu-Ray

Знаете ли вы, что...:

* Фильм снят по мотивам повести Фёдора Достоевского «Двойник» (1846).
* Съёмки фильма стартовали 20 мая 2012 года и проходили в заброшенном офисе на окраине Лондона. Натурные съёмки проходили только ночью, остальные сцены в помещениях были сняты днём.
* В 1996 по тому же роману Фёдора Достоевского и также с названием «Двойник» хотел снять фильм Роман Полански. Главные роли в фильме должны были достаться Джону Траволте, Изабеле Аджани, Джону Гудману и Жану Рено. Съемки должны были начаться в Париже в июне 1996 года. Однако за несколько дней до начала съемок Траволта, поссорившись с Полански из-за изменений в сценарии, покинул проект. А вскоре после этого работа над фильмом была прекращена.
* Первая реплика персонажа Ясмин Пейдж – «Идиот!», что является названием романа Фёдора Достоевского.

MediaInfo:

Общее
Уникальный идентификатор : 216958638596911677904745788558720310597 (0xA338B6C0A0105ABF9356EB8E8D531D45)
Полное имя : D:\Video\The.Double.2013.1080p.BDRip.Rus.Eng.mkv
Формат : Matroska
Версия формата : Version 2
Размер файла : 10,1 Гбайт
Продолжительность : 1 ч. 33 м.
Общий поток : 15,5 Мбит/сек
Название фильма : The Double (2013) - Release for HDCLUB
Дата кодирования : UTC 2014-09-28 21:32:08
Программа кодирования : mkvmerge v5.7.0 ('The Whirlwind') built on Jul 8 2012 20:08:51
Библиотека кодирования : libebml v1.2.3 + libmatroska v1.3.0
Видео
Идентификатор : 1
Формат : AVC
Формат/Информация : Advanced Video Codec
Профиль формата : High@L4.1
Параметр CABAC формата : Да
Параметр ReFrames формата : 4 кадра
Идентификатор кодека : V_MPEG4/ISO/AVC
Продолжительность : 1 ч. 33 м.
Битрейт : 13,8 Мбит/сек
Ширина : 1920 пикселей
Высота : 1036 пикселей
Соотношение сторон : 1,853
Частота кадров : 23,976 кадра/сек
Цветовое пространство : YUV
Субдискретизация насыщенности : 4:2:0
Битовая глубина : 8 бит
Тип развёртки : Прогрессивная
Бит/(Пиксели*Кадры) : 0.290
Размер потока : 8,99 Гбайт (89%)
Библиотека кодирования : x264 core 142 r2453kMod ea0ca51
Настройки программы : cabac=1 / ref=4 / deblock=1:-3:-3 / analyse=0x3:0x133 / me=umh / subme=10 / psy=1 / fade_compensate=0.00 / psy_rd=1.05:0.00 / mixed_ref=1 / me_range=16 / chroma_me=1 / trellis=2 / 8x8dct=1 / cqm=0 / deadzone=21,11 / fast_pskip=0 / chroma_qp_offset=-2 / threads=12 / lookahead_threads=2 / sliced_threads=0 / nr=0 / decimate=0 / interlaced=0 / bluray_compat=0 / constrained_intra=0 / fgo=0 / bframes=9 / b_pyramid=2 / b_adapt=2 / b_bias=0 / direct=3 / weightb=1 / open_gop=0 / weightp=2 / keyint=250 / keyint_min=23 / scenecut=40 / intra_refresh=0 / rc=crf / mbtree=0 / crf=17.7000 / qcomp=0.60 / qpmin=0 / qpmax=69 / qpstep=4 / ip_ratio=1.40 / pb_ratio=1.20 / aq=3:0.70 / zones=11141,11259,crf=16.5
Язык : English
Default : Да
Forced : Нет
Аудио #1
Идентификатор : 2
Формат : AC-3
Формат/Информация : Audio Coding 3
Расширение режима : CM (complete main)
Идентификатор кодека : A_AC3
Продолжительность : 1 ч. 33 м.
Вид битрейта : Постоянный
Битрейт : 640 Кбит/сек
Каналы : 6 каналов
Расположение каналов : Front: L C R, Side: L R, LFE
Частота : 48,0 КГц
Битовая глубина : 16 бит
Метод сжатия : С потерями
Размер потока : 427 Мбайт (4%)
Язык : Russian
Default : Да
Forced : Нет
Аудио #2
Идентификатор : 3
Формат : DTS
Формат/Информация : Digital Theater Systems
Идентификатор кодека : A_DTS
Продолжительность : 1 ч. 33 м.
Вид битрейта : Постоянный
Битрейт : 755 Кбит/сек
Каналы : 6 каналов
Расположение каналов : Front: L C R, Side: L R, LFE
Частота : 48,0 КГц
Битовая глубина : 24 бит
Метод сжатия : С потерями
Размер потока : 503 Мбайт (5%)
Язык : English
Default : Нет
Forced : Нет
Текст #1
Идентификатор : 4
Формат : UTF-8
Идентификатор кодека : S_TEXT/UTF8
Идентификатор кодека/Информация : UTF-8 Plain Text
Язык : Russian
Default : Нет
Forced : Нет
Текст #2
Идентификатор : 5
Формат : UTF-8
Идентификатор кодека : S_TEXT/UTF8
Идентификатор кодека/Информация : UTF-8 Plain Text
Заголовок : SDH
Язык : English
Default : Нет
Forced : Нет
Текст #3
Идентификатор : 6
Формат : UTF-8
Идентификатор кодека : S_TEXT/UTF8
Идентификатор кодека/Информация : UTF-8 Plain Text
Язык : English
Default : Нет
Forced : Нет
Меню
00:00:00.000 : en:00:00:00.000
00:07:28.615 : en:00:07:28.615
00:16:15.183 : en:00:16:15.183
00:23:59.438 : en:00:23:59.438
00:31:19.544 : en:00:31:19.544
00:35:47.187 : en:00:35:47.187
00:43:11.631 : en:00:43:11.631
00:50:06.128 : en:00:50:06.128
01:00:34.589 : en:01:00:34.589
01:07:20.078 : en:01:07:20.078
01:16:39.970 : en:01:16:39.970
01:24:05.791 : en:01:24:05.791

Рецензия:

Современное переложение легенды о доппельгангере
Существует такое поверье, что в мире есть внешне не отличимая копия человека (по другой версии на планете целых 3 двойника одного индивида), противоположные друг другу по характеру. И при встрече один из них непременно должен умереть! Погибнет тот, что окажется слабее. Но в Двойнике Ричарда Айоади всё несколько не так: жизни двух героев неразделимы — смерть одного приведёт к смерти второго.
Саймон — умный, но очень уж неприметный паренёк. Он никак не может решиться обратиться к начальству с предложением по повышению эффективности труда, не может заговорить с нравящейся ему девушкой. У него нет ни друзей, ни знакомых. Его даже коллеги с трудом узнают. Жизнь для него — сплошная тоска. Всё становится только хуже, когда появляется Джеймс — его точный клон, стремящийся забрать у Саймона то немногое, что тот всё-таки имеет.
Фильм изобилует сюрреалистичными пейзажами, характерами и ситуациями, а господствующее антиутопичное настроение вызывает стойкие ассоциации с Бразилией Терри Гиллиама, где свободное общество пало под гнётом бюрократизма. Саймон вынужден заполнять бумагу при входе на фабрику, после же уничтожения его карточки человек как будто стирается из системы. На удивлённый протест о существовании молодого сотрудника служащий заявляет, что раз в системе его нет — его вовсе нет… И здесь уже не важен фактический расклад вещей.
Кино не получило бы и половины харизмы без участия Джесси Айзенберга, прекрасно исполнившем свою роль. Сыграть настолько противоположных персонажей в рамках одной кинокартины — дело непростое, а потому заслуживает особого уважения.
Двойник нельзя назвать лёгким для восприятия. Включая его вечером, не удастся расслабиться. Это кино заставляет шевелить и без этого уставшими за рабочий день мозгами, но если не поленитесь, то обнаружите настоящую жемчужину в неприметной раковине.

9 из 10
Скриншоты: Время раздачи: с 10:00 до 20:00 (GMT+2) - до 10 скачавшихНе забываем говорить

[Цитировать]



Показать сообщения:    

Текущее время: 20-Авг 06:28

Часовой пояс: UTC + 6


Вы не можете начинать темы
Вы не можете отвечать на сообщения
Вы не можете редактировать свои сообщения
Вы не можете удалять свои сообщения
Вы не можете голосовать в опросах
Вы не можете прикреплять файлы к сообщениям
Вы не можете скачивать файлы

!ВНИМАНИЕ!
Сайт не предоставляет электронные версии произведений, а занимается лишь коллекционированием и каталогизацией ссылок, присылаемых и публикуемых на форуме нашими читателями. Если вы являетесь правообладателем какого-либо представленного материала и не желаете, чтобы ссылка на него находилась в нашем каталоге, свяжитесь с нами, и мы незамедлительно удалим ее. Файлы для обмена на трекере предоставлены пользователями сайта, и администрация не несет ответственности за их содержание. Просьба не заливать файлы, защищенные авторскими правами, а также файлы нелегального содержания!