[ Сегодня идет свободное скачивание без начисления Download ]


Статистика раздачи
Нет
 
   
 
Top  
 
 
-Сбежавший жених / Don Peyote (2014) WEB-DLRip-- Год выпуска: 2014
Производство: США, Casadelic Pictures
Жанр: Драма, комедия
Режиссер: Михаэль Кансонейро, Дэн Фоглер
Продюсер: Стюарт Браунштейн, Люк Дэниелс, Томас Майкл Салливан
Актеры: Энн Хэтэуэй, Джей Барушель, Джош Дюамель, Тофер Грейс, Аннабелла Шиорра, Уоллес Шоун, Дин Уинтерс, Дэн Фоглер, Абель Феррара, Шон Броснан
Описание фильма:
Неудачник и разгильдяй Уоррен перепробовал в своей жизни немало профессий, однако ни в одной из них не смог добиться успеха. Да и, сказать по правде, ничего из того, чем он занимался, Уоррену никогда не нравилось. Но однажды Уоррен встречает бездомного чудака, который без устали твердит о приближающемся апокалипсисе. Уоррен так загорается этой идеей скорого конца света, что решает снять документальный фильм, посвященный этой тематике. А тем временем его девушка во всю готовится к их свадьбе, даже не догадываясь, что для Уоррена вопрос брака отодвинулся на второй план. Сбежавший жених – это веселая комедия, в которой комичное органично сочетается с трагичными элементами.
Перевод: Профессиональный многоголосый [Официальный звук]
Субтитры: Отсутствуют

Дата мировой премьеры: 9 мая 2014
Продолжительность: 01:39:25
Качество видео: WEB-DLRip
Видеокодек: XviD
Битрейт видео: ~1899 kb/s
Размер кадра: 720x400
Аудиокодек: AC-3, 2ch.
Битрейт аудио: 192 Кбит/сек
Сэмпл: Скачать

MediaInfo:

Общее
Полное имя                               : Сбежавший жених (2014).avi
Формат                                   : AVI
Формат/Информация                        : Audio Video Interleave
Размер файла                             : 1,46 Гбайт
Продолжительность                        : 1 ч. 39 м.
Общий поток                              : 2100 Кбит/сек
Программа кодирования                    : VirtualDubMod 1.5.10.2 (build 2540/release)
Библиотека кодирования                   : VirtualDubMod build 2540/release
Видео
Идентификатор                            : 0
Формат                                   : MPEG-4 Visual
Профиль формата                          : Advanced Simple@L5
Параметр BVOP формата                    : 2
Параметр QPel формата                    : Нет
Параметр GMC формата                     : Без точки перехода
Параметр матрицы формата                 : Default (MPEG)
Идентификатор кодека                     : XVID
Идентификатор кодека/Подсказка           : XviD
Продолжительность                        : 1 ч. 39 м.
Битрейт                                  : 1899 Кбит/сек
Ширина                                   : 720 пикселей
Высота                                   : 400 пикселей
Соотношение сторон                       : 16:9
Частота кадров                           : 23,976 кадра/сек
Цветовое пространство                    : YUV
Субдискретизация насыщенности            : 4:2:0
Битовая глубина                          : 8 бит
Тип развёртки                            : Прогрессивная
Метод сжатия                             : С потерями
Бит/(Пиксели*Кадры)                      : 0.275
Размер потока                            : 1,32 Гбайт (90%)
Библиотека кодирования                   : XviD 1.2.1 (UTC 2008-12-04)
Аудио
Идентификатор                            : 1
Формат                                   : AC-3
Формат/Информация                        : Audio Coding 3
Расширение режима                        : CM (complete main)
Параметр Endianness формата              : Big
Идентификатор кодека                     : 2000
Продолжительность                        : 1 ч. 39 м.
Вид битрейта                             : Постоянный
Битрейт                                  : 192 Кбит/сек
Каналы                                   : 2 канала
Расположение каналов                     : Front: L R
Частота                                  : 48,0 КГц
Битовая глубина                          : 16 бит
Метод сжатия                             : С потерями
Размер потока                            : 137 Мбайт (9%)
Выравнивание                             : Разделение по промежуткам
Продолжительность промежутка             : 42  мс. (1,00 видеокадр)
Время предзагрузки промежутка            : 500  мс.
Скриншоты: Время раздачи: 24/7

[Цитировать]



Показать сообщения:    

Текущее время: 19-Авг 02:05

Часовой пояс: UTC + 6


Вы не можете начинать темы
Вы не можете отвечать на сообщения
Вы не можете редактировать свои сообщения
Вы не можете удалять свои сообщения
Вы не можете голосовать в опросах
Вы не можете прикреплять файлы к сообщениям
Вы не можете скачивать файлы

!ВНИМАНИЕ!
Сайт не предоставляет электронные версии произведений, а занимается лишь коллекционированием и каталогизацией ссылок, присылаемых и публикуемых на форуме нашими читателями. Если вы являетесь правообладателем какого-либо представленного материала и не желаете, чтобы ссылка на него находилась в нашем каталоге, свяжитесь с нами, и мы незамедлительно удалим ее. Файлы для обмена на трекере предоставлены пользователями сайта, и администрация не несет ответственности за их содержание. Просьба не заливать файлы, защищенные авторскими правами, а также файлы нелегального содержания!