[ Сегодня идет свободное скачивание без начисления Download ]


Статистика раздачи
Нет
 
   
 
Top  
 
 
Боец поневоле / Forced to Fight-- Страна: Канада / Castel Films, CC Capital Arts Entertainment SRL, PHD Productions
Жанр: Боевик
Год выпуска: 2011
Продолжительность: 01:40:02-Перевод: Профессиональный (многоголосый закадровый) НТВ+
Cубтитры: английские
Формат субтитров: softsub (SRT)
Оригинальная аудиодорожка: английский-Режиссер: Джонас Куастел / Jonas Kuastel
В ролях: Владимир Коморовски, Гэри Дэниелс, Брайан Флаэрти, Филип Грэйнджер, Арки Аломар, Флорин Роата, Корбин Томас, Александра Уивер, Питер Уэллер, Дорджн Захарджа
Описание: Строптивый участник боёв без правил идёт наперекор воле босса, выигрывает схватку и сбегает с деньгами. По излишней самоуверенности он полагает, что мафию можно обмануть. Но это не так. Не успевает он выйти на улицу, как попадает в лапы громил и едва не погибает. На нем висит большой долг, который хозяин предлагает оплатить старшему брату…- -Качество видео: BDRip-AVC [Blu-Ray]
Формат видео: MKV
Видео: H.264, 1024x576 (16:9), 23,976 fps, 2481 Кbps, 0.175 bit/pixel
Аудио#1: 48 kHz, AC3 Dolby Digital, 2/0 (L,R) ch, ~192 kbps avg | RUS
Аудио#2: 48 kHz, AC3 Dolby Digital, 3/2 (L,C,R,l,r) + LFE ch, ~448.00 kbps avg | ENG

MediaInfo

General
Unique ID : 186597034212883292644538079740679360178 (0x8C61481521B710738926F97055170EB2)
Complete name : Boec.po.Nevole.2011.P.BDRip.x264.potroks.mkv
Format : Matroska
Format version : Version 2
File size : 2.18 GiB
Duration : 1h 40mn
Overall bit rate : 3 122 Kbps
Movie name : -=POTROKS=-
Encoded date : UTC 2012-12-22 06:24:35
Writing application : mkvmerge v5.7.0 ('The Whirlwind') built on Jul 8 2012 20:08:51
Writing library : libebml v1.2.3 + libmatroska v1.3.0
Video
ID : 1
Format : AVC
Format/Info : Advanced Video Codec
Format profile : High@L4.1
Format settings, CABAC : Yes
Format settings, ReFrames : 12 frames
Codec ID : V_MPEG4/ISO/AVC
Duration : 1h 40mn
Bit rate : 2 481 Kbps
Width : 1 024 pixels
Height : 576 pixels
Display aspect ratio : 16:9
Frame rate mode : Constant
Frame rate : 23.976 fps
Color space : YUV
Chroma subsampling : 4:2:0
Bit depth : 8 bits
Scan type : Progressive
Bits/(Pixel*Frame) : 0.175
Stream size : 1.69 GiB (78%)
Title : Боец поневоле
Writing library : x264 core 128 r2216M 198a7ea
Encoding settings : cabac=1 / ref=13 / deblock=1:-2:-1 / analyse=0x3:0x133 / me=umh / subme=11 / psy=1 / psy_rd=1.05:0.00 / mixed_ref=1 / me_range=32 / chroma_me=1 / trellis=2 / 8x8dct=1 / cqm=0 / deadzone=21,11 / fast_pskip=0 / chroma_qp_offset=-2 / threads=4 / lookahead_threads=1 / sliced_threads=0 / nr=0 / decimate=1 / interlaced=0 / bluray_compat=0 / constrained_intra=0 / bframes=14 / b_pyramid=1 / b_adapt=2 / b_bias=0 / direct=3 / weightb=1 / open_gop=0 / weightp=2 / keyint=240 / keyint_min=23 / scenecut=40 / intra_refresh=0 / rc_lookahead=200 / rc=2pass / mbtree=1 / bitrate=2481 / ratetol=1.0 / qcomp=0.70 / qpmin=0 / qpmax=63 / qpstep=3 / cplxblur=20.0 / qblur=0.5 / vbv_maxrate=20000 / vbv_bufsize=25000 / nal_hrd=none / ip_ratio=1.35 / aq=1:0.70
Language : English
Default : Yes
Forced : No
Audio #1
ID : 2
Format : AC-3
Format/Info : Audio Coding 3
Mode extension : CM (complete main)
Format settings, Endianness : Big
Codec ID : A_AC3
Duration : 1h 40mn
Bit rate mode : Constant
Bit rate : 192 Kbps
Channel(s) : 2 channels
Channel positions : Front: L R
Sampling rate : 48.0 KHz
Bit depth : 16 bits
Compression mode : Lossy
Delay relative to video : 59ms
Stream size : 137 MiB (6%)
Title : HTB+
Language : Russian
Default : Yes
Forced : Yes
Audio #2
ID : 3
Format : AC-3
Format/Info : Audio Coding 3
Mode extension : CM (complete main)
Format settings, Endianness : Big
Codec ID : A_AC3
Duration : 1h 40mn
Bit rate mode : Constant
Bit rate : 448 Kbps
Channel(s) : 6 channels
Channel positions : Front: L C R, Side: L R, LFE
Sampling rate : 48.0 KHz
Bit depth : 16 bits
Compression mode : Lossy
Delay relative to video : 59ms
Stream size : 321 MiB (14%)
Title : Original
Language : English
Default : No
Forced : No
Text
ID : 4
Format : UTF-8
Codec ID : S_TEXT/UTF8
Codec ID/Info : UTF-8 Plain Text
Language : English
Default : No
Forced : No

Скриншоты


[Цитировать]



Показать сообщения:    

Текущее время: 18-Авг 13:04

Часовой пояс: UTC + 6


Вы не можете начинать темы
Вы не можете отвечать на сообщения
Вы не можете редактировать свои сообщения
Вы не можете удалять свои сообщения
Вы не можете голосовать в опросах
Вы не можете прикреплять файлы к сообщениям
Вы не можете скачивать файлы

!ВНИМАНИЕ!
Сайт не предоставляет электронные версии произведений, а занимается лишь коллекционированием и каталогизацией ссылок, присылаемых и публикуемых на форуме нашими читателями. Если вы являетесь правообладателем какого-либо представленного материала и не желаете, чтобы ссылка на него находилась в нашем каталоге, свяжитесь с нами, и мы незамедлительно удалим ее. Файлы для обмена на трекере предоставлены пользователями сайта, и администрация не несет ответственности за их содержание. Просьба не заливать файлы, защищенные авторскими правами, а также файлы нелегального содержания!