[ Сегодня идет свободное скачивание без начисления Download ]


Статистика раздачи
Нет
 
   
 
Top  
 
 
Информация о фильме:
Год выпуска: 2011
Страна: США, Индия
Жанр: фантастика, боевик, триллер, вестерн
Продолжительность: 02:15:13
Перевод: Авторский (одноголосый, закадровый) Л.Володарский, Авторский (одноголосый, закадровый) С.Визгунов
Субтитры: Русский, английский
Режиссер: Джон Фавро
Актеры: Дэниэл Крэйг, Харрисон Форд, Оливия Уайлд, Эбигейл Спенсер, Бак Тейлор, Мэттью Тейлор, Купер Тейлор, Клэнси Браун, Пол Дано, Крис Браунинг, Адам Бич
Описание фильма:
1873, Абсолюшен, штат Аризона. В эту глухую американскую провинцию прибывает потерявший память незнакомец. Единственный намек на его прошлое — это странные кандалы на одном из его запястий. Странник быстро узнает, что жители городка не рады незнакомцам, да и вообще они выходят на улицы лишь по приказу полковника Долархайда, правящего в этой местности железной рукой.
Вскоре странное поведение жителей объясняется. Периодически с неба обрушиваются ужасающие создания, которые забирают все, что им заблагорассудится и держат город в паническом страхе. Главный герой, постепенно вспоминающий о том, что с ним произошло, становится единственной надеждой города на спасение.


Дата мировой премьеры: 29 июля 2011
Дата российской премьеры: 11 августа 2011
Дата выхода DVD релиза: 15 декабря 2011, «Новый Диск»
Файл:
Формат: MKV
Качество: BDRip-AVC
Видео: 1032x430 (2.40:1), 23.976 fps, 1 473 Kbps (0.138 bit/pixel)
Аудио #1: AC-3, 48.0 KHz, 6 ch, 448 Kbps, CBR (Russian) - Л.Володарский
Аудио #2: AC-3, 48.0 KHz, 6 ch, 448 Kbps, CBR (Russian) - С.Визгунов

Доп.инфо

За дорогу Володарского спасибо MyxAmoP
За перевод Володарского большое спасибо пользователям форума hdtracker:
Xerman13; dunhill200; Лексал; С.Чистобаев; The Undertaker; Hattori Hanzo; kinobbk; kondratzx; Role; Диммон; therox; Gross1978; ZeRoNe

MediaInfo

Format : Matroska
Format version : Version 2
File size : 2.24 GiB
Duration : 2h 15mn
Overall bit rate : 2 370 Kbps
Encoded date : UTC 2014-09-21 12:52:05
Writing application : mkvmerge v5.3.0 ('I could have danced') built on Feb 9 2012 10:38:07
Writing library : libebml v1.2.3 + libmatroska v1.3.0
Attachment : Yes
Video
ID : 1
Format : AVC
Format/Info : Advanced Video Codec
Format profile : High@L4.1
Format settings, CABAC : Yes
Format settings, ReFrames : 10 frames
Codec ID : V_MPEG4/ISO/AVC
Duration : 2h 15mn
Bit rate : 1 473 Kbps
Width : 1 032 pixels
Height : 430 pixels
Display aspect ratio : 2.40:1
Frame rate mode : Constant
Frame rate : 23.976 fps
Color space : YUV
Chroma subsampling : 4:2:0
Bit depth : 8 bits
Scan type : Progressive
Bits/(Pixel*Frame) : 0.138
Stream size : 1.35 GiB (60%)
Title : Cowboys.And.Aliens.chopper887
Writing library : x264 core 116 r2074 2641b9e
Encoding settings : cabac=1 / ref=10 / deblock=1:-2:-1 / analyse=0x3:0x133 / me=umh / subme=10 / psy=1 / psy_rd=0.95:0.05 / mixed_ref=1 / me_range=32 / chroma_me=1 / trellis=2 / 8x8dct=1 / cqm=0 / deadzone=21,11 / fast_pskip=0 / chroma_qp_offset=-3 / threads=3 / sliced_threads=0 / nr=0 / decimate=1 / interlaced=0 / bluray_compat=0 / constrained_intra=0 / bframes=9 / b_pyramid=2 / b_adapt=2 / b_bias=0 / direct=3 / weightb=1 / open_gop=0 / weightp=2 / keyint=250 / keyint_min=23 / scenecut=40 / intra_refresh=0 / rc_lookahead=80 / rc=2pass / mbtree=1 / bitrate=1473 / ratetol=1.0 / qcomp=0.70 / qpmin=0 / qpmax=69 / qpstep=4 / cplxblur=20.0 / qblur=0.5 / ip_ratio=1.40 / aq=1:1.00
Language : English
Default : Yes
Forced : No
Audio #1
ID : 2
Format : AC-3
Format/Info : Audio Coding 3
Mode extension : CM (complete main)
Format settings, Endianness : Big
Codec ID : A_AC3
Duration : 2h 15mn
Bit rate mode : Constant
Bit rate : 448 Kbps
Channel(s) : 6 channels
Channel positions : Front: L C R, Side: L R, LFE
Sampling rate : 48.0 KHz
Bit depth : 16 bits
Compression mode : Lossy
Delay relative to video : 28ms
Stream size : 433 MiB (19%)
Title : Авторский Л.Володарский
Language : Russian
Default : No
Forced : No
Audio #2
ID : 3
Format : AC-3
Format/Info : Audio Coding 3
Mode extension : CM (complete main)
Format settings, Endianness : Big
Codec ID : A_AC3
Duration : 2h 15mn
Bit rate mode : Constant
Bit rate : 448 Kbps
Channel(s) : 6 channels
Channel positions : Front: L C R, Side: L R, LFE
Sampling rate : 48.0 KHz
Bit depth : 16 bits
Compression mode : Lossy
Delay relative to video : 28ms
Stream size : 433 MiB (19%)
Title : Авторский С.Визгунов
Language : Russian
Default : No
Forced : No
Text #1
ID : 4
Format : UTF-8
Codec ID : S_TEXT/UTF8
Codec ID/Info : UTF-8 Plain Text
Title : forsed (byGross)
Language : Russian
Default : Yes
Forced : No
Text #2
ID : 5
Format : UTF-8
Codec ID : S_TEXT/UTF8
Codec ID/Info : UTF-8 Plain Text
Title : voronine
Language : Russian
Default : No
Forced : No
Text #3
ID : 6
Format : UTF-8
Codec ID : S_TEXT/UTF8
Codec ID/Info : UTF-8 Plain Text
Title : SRT
Language : English
Default : No
Forced : No

Скриншоты


[Цитировать]



Показать сообщения:    

Текущее время: 17-Авг 03:27

Часовой пояс: UTC + 6


Вы не можете начинать темы
Вы не можете отвечать на сообщения
Вы не можете редактировать свои сообщения
Вы не можете удалять свои сообщения
Вы не можете голосовать в опросах
Вы не можете прикреплять файлы к сообщениям
Вы не можете скачивать файлы

!ВНИМАНИЕ!
Сайт не предоставляет электронные версии произведений, а занимается лишь коллекционированием и каталогизацией ссылок, присылаемых и публикуемых на форуме нашими читателями. Если вы являетесь правообладателем какого-либо представленного материала и не желаете, чтобы ссылка на него находилась в нашем каталоге, свяжитесь с нами, и мы незамедлительно удалим ее. Файлы для обмена на трекере предоставлены пользователями сайта, и администрация не несет ответственности за их содержание. Просьба не заливать файлы, защищенные авторскими правами, а также файлы нелегального содержания!