[ Сегодня идет свободное скачивание без начисления Download ]


Статистика раздачи
Нет
 
   
 
 
 
 
Недопёсок Наполеон III
Жанр: фильм о животных
Год выпуска: 1978
Продолжительность: 01:01:50
Режиссёр: Эдуард Бочаров
В ролях: Максим Сидоров, Анна Золотарева, Вадим Захарченко, Николай Сморчков, Дмитрий Ивановский, Валерий Феофанов, Даниил Нетребин, Светлана Светличная, Валентина Ананьина, Олеся Иванова, Александр Январёв, Мария Виноградова, Эдуард Бочаров, Валентина Березуцкая, Валентин Брылеев, Павел Винник, Елена Вольская, Маргарита Жарова, Артем Карапетян, Майя Булгакова
Описание: Невероятные приключения зверей и людей с музыкой, песнями и плясками. Молодой песец Наполеон III, сбежав со зверофермы, оказался в деревне Ковылкино. Вслед за ним в деревню нагрянули охотники, звероловы, работники зверофермы, отряд милиции и корреспонденты...
Доп. информация: Коллега продолжает радовать нас своими замечательными записями трансляций ТК "Культура".
Постер из коллекции советских киноплакатов коллеги .
Качество видео: DVB
Формат видео: MPEG-PS
Видео: MPEG2 Video, 720x576 (4:3), 25,000 кадров/сек, 5323 Кбит/сек
Аудио: MPEG Audio, 48,0 КГц, 256 Кбит/сек, 2 канала

MediaInfo

Общее
Полное имя : E:\Torrent\Недопесок Наполеон III\Недопесок Наполеон III (Россия К).mpg
Формат : MPEG-PS
Размер файла : 2,46 Гбайт
Продолжительность : 1 ч. 1 м.
Режим общего битрейта : Переменный
Общий поток : 5693 Кбит/сек
Видео
Идентификатор : 224 (0xE0)
Формат : MPEG Video
Версия формата : Version 2
Профиль формата : Main@Main
Параметр BVOP формата : Да
Параметр матрицы формата : Выборочная
Параметр GOP формата : M=3, N=15
Продолжительность : 1 ч. 1 м.
Вид битрейта : Переменный
Битрейт : 5323 Кбит/сек
Максимальный битрейт : 15,0 Мбит/сек
Ширина : 720 пикселей
Высота : 576 пикселей
Соотношение сторон : 4:3
Частота кадров : 25,000 кадров/сек
Стандарт вещания : PAL
Цветовое пространство : YUV
Субдискретизация насыщенности : 4:2:0
Битовая глубина : 8 бит
Тип развёртки : Чересстрочная
Порядок развёртки : Верхнее поле первое
Метод сжатия : С потерями
Бит/(Пиксели*Кадры) : 0.513
Размер потока : 2,30 Гбайт (94%)
Аудио
Идентификатор : 192 (0xC0)
Формат : MPEG Audio
Версия формата : Version 1
Профиль формата : Layer 2
Продолжительность : 1 ч. 1 м.
Вид битрейта : Постоянный
Битрейт : 256 Кбит/сек
Каналы : 2 канала
Частота : 48,0 КГц
Метод сжатия : С потерями
Размер потока : 113 Мбайт (4%)

Скриншоты

[Цитировать]



Показать сообщения:    

Текущее время: 23-Авг 18:05

Часовой пояс: UTC + 6


Вы не можете начинать темы
Вы не можете отвечать на сообщения
Вы не можете редактировать свои сообщения
Вы не можете удалять свои сообщения
Вы не можете голосовать в опросах
Вы не можете прикреплять файлы к сообщениям
Вы не можете скачивать файлы

!ВНИМАНИЕ!
Сайт не предоставляет электронные версии произведений, а занимается лишь коллекционированием и каталогизацией ссылок, присылаемых и публикуемых на форуме нашими читателями. Если вы являетесь правообладателем какого-либо представленного материала и не желаете, чтобы ссылка на него находилась в нашем каталоге, свяжитесь с нами, и мы незамедлительно удалим ее. Файлы для обмена на трекере предоставлены пользователями сайта, и администрация не несет ответственности за их содержание. Просьба не заливать файлы, защищенные авторскими правами, а также файлы нелегального содержания!