[ Сегодня идет свободное скачивание без начисления Download ]


Статистика раздачи
Нет
 
   
 
Top  
 
 
Номер 44 / Child 44-Год выпуска: 2015
Страна: США, Великобритания, Чехия, Румыния, Etalon film, Summit Entertainment
Жанр: Триллер, детектив, криминал, драма
Продолжительность: 02:17:11
Перевод: Профессиональный (полное дублирование) [iTunes]
Субтитры: английские-В ролях: Том Харди, Гари Олдман, Нуми Рапас, Юэль Киннаман, Пэдди Консидайн, Джейсон Кларк, Венсан Кассель, Ксавьер Аткинс, Марк Льюис Джонс, Фарес Фарес
Режиссёр: Даниэль Эспиноса-Описание: СССР, начало 50-ых годов. Офицер МГБ Лев Демидов решает расследовать серию убийств детей, но проблема в том, что это идёт вразрез с утверждением «у нас убийств нет» самого тов. Сталина…-Качество: BDRip 1080p
Формат: MKV
Видео кодек: AVC
Аудио кодек: AC3
Видео: MPEG-4 AVC, 7777 Кбит/с, 1920x800, 23.976 кадр/с
Аудио:
Аудио #1: Русский: AC3, 6 ch, 384 Кбит/с, 48 KHz
Аудио #2: Русский: AC3, 6 ch, 640 Кбит/с, 48 KHz
Аудио #3: Английский: DTS, 6 ch, 1510 Кбит/c, 48 KHz

Рейтинг:

MI

Общее
Уникальный идентификатор : 175953093809094494021617485528444925582 (0x845F554DBD272005A7FAA25EE2DB768E)
Полное имя : D:\Кино\Child.44.2015.x264.BDRip.(1080p).mkv
Формат : Matroska
Версия формата : Version 2
Размер файла : 9,87 Гбайт
Продолжительность : 2 ч. 17 м.
Общий поток : 10,3 Мбит/сек
Название фильма : Номер 44.2015.Rip by: ollan
Дата кодирования : UTC 2015-07-26 22:26:22
Программа кодирования : mkvmerge v5.6.0 ('Kenya Kane') built on May 27 2012 16:44:04
Библиотека кодирования : libebml v1.2.3 + libmatroska v1.3.0
Видео
Идентификатор : 1
Формат : AVC
Формат/Информация : Advanced Video Codec
Профиль формата : High@L4.1
Параметр CABAC формата : Да
Параметр ReFrames формата : 5 кадров
Идентификатор кодека : V_MPEG4/ISO/AVC
Продолжительность : 2 ч. 17 м.
Битрейт : 7777 Кбит/сек
Ширина : 1920 пикселей
Высота : 800 пикселей
Соотношение сторон : 2,40:1
Режим частоты кадров : Постоянный
Частота кадров : 23,976 кадра/сек
Цветовое пространство : YUV
Субдискретизация насыщенности : 4:2:0
Битовая глубина : 8 бит
Тип развёртки : Прогрессивная
Бит/(Пиксели*Кадры) : 0.211
Размер потока : 7,25 Гбайт (73%)
Библиотека кодирования : x264 core 125 r2200 999b753
Настройки программы : cabac=1 / ref=5 / deblock=1:-3:-3 / analyse=0x3:0x133 / me=umh / subme=11 / psy=1 / psy_rd=1.00:0.10 / mixed_ref=1 / me_range=32 / chroma_me=1 / trellis=2 / 8x8dct=1 / cqm=0 / deadzone=21,11 / fast_pskip=0 / chroma_qp_offset=-3 / threads=12 / lookahead_threads=2 / sliced_threads=0 / nr=0 / decimate=0 / interlaced=0 / bluray_compat=0 / constrained_intra=0 / bframes=9 / b_pyramid=2 / b_adapt=2 / b_bias=0 / direct=3 / weightb=1 / open_gop=0 / weightp=2 / keyint=240 / keyint_min=23 / scenecut=40 / intra_refresh=0 / rc=2pass / mbtree=0 / bitrate=7777 / ratetol=1.0 / qcomp=0.60 / qpmin=0 / qpmax=69 / qpstep=4 / cplxblur=20.0 / qblur=0.5 / ip_ratio=1.40 / pb_ratio=1.30 / aq=1:1.00
Язык : English
Default : Да
Forced : Нет
Аудио #1
Идентификатор : 2
Формат : AC-3
Формат/Информация : Audio Coding 3
Расширение режима : CM (complete main)
Параметр Endianness формата : Big
Идентификатор кодека : A_AC3
Продолжительность : 2 ч. 17 м.
Вид битрейта : Постоянный
Битрейт : 384 Кбит/сек
Каналы : 6 каналов
Расположение каналов : Front: L C R, Side: L R, LFE
Частота : 48,0 КГц
Метод сжатия : С потерями
Размер потока : 377 Мбайт (4%)
Заголовок : Дублированный (iTunes Russia)
Язык : Russian
Default : Нет
Forced : Нет
Аудио #2
Идентификатор : 3
Формат : AC-3
Формат/Информация : Audio Coding 3
Расширение режима : CM (complete main)
Параметр Endianness формата : Big
Идентификатор кодека : A_AC3
Продолжительность : 2 ч. 17 м.
Вид битрейта : Постоянный
Битрейт : 640 Кбит/сек
Каналы : 6 каналов
Расположение каналов : Front: L C R, Side: L R, LFE
Частота : 48,0 КГц
Метод сжатия : С потерями
Размер потока : 628 Мбайт (6%)
Заголовок : Дублированный (iTunes Russia)
Язык : Russian
Default : Нет
Forced : Нет
Аудио #3
Идентификатор : 4
Формат : DTS
Формат/Информация : Digital Theater Systems
Режим : 16
Параметр Endianness формата : Big
Идентификатор кодека : A_DTS
Продолжительность : 2 ч. 17 м.
Вид битрейта : Постоянный
Битрейт : 1509 Кбит/сек
Каналы : 6 каналов
Расположение каналов : Front: L C R, Side: L R, LFE
Частота : 48,0 КГц
Битовая глубина : 24 бит
Метод сжатия : С потерями
Размер потока : 1,45 Гбайт (15%)
Язык : English
Default : Нет
Forced : Нет
Текст
Идентификатор : 5
Формат : UTF-8
Идентификатор кодека : S_TEXT/UTF8
Идентификатор кодека/Информация : UTF-8 Plain Text
Заголовок : Full
Язык : English
Default : Нет
Forced : Нет
Меню
00:00:00.000 : en:Chapter 01
00:06:34.060 : en:Chapter 02
00:17:19.288 : en:Chapter 03
00:22:45.195 : en:Chapter 04
00:33:14.450 : en:Chapter 05
00:40:53.992 : en:Chapter 06
00:48:27.444 : en:Chapter 07
00:59:22.766 : en:Chapter 08
01:03:56.164 : en:Chapter 09
01:10:16.420 : en:Chapter 10
01:19:23.381 : en:Chapter 11
01:28:12.787 : en:Chapter 12
01:38:45.667 : en:Chapter 13
01:47:48.920 : en:Chapter 14
01:54:15.055 : en:Chapter 15
02:02:20.373 : en:Chapter 16
02:17:10.805 : en:Chapter 17
-

Скриншоты

[Цитировать]



Показать сообщения:    

Текущее время: 24-Июл 10:36

Часовой пояс: UTC + 6


Вы не можете начинать темы
Вы не можете отвечать на сообщения
Вы не можете редактировать свои сообщения
Вы не можете удалять свои сообщения
Вы не можете голосовать в опросах
Вы не можете прикреплять файлы к сообщениям
Вы не можете скачивать файлы

!ВНИМАНИЕ!
Сайт не предоставляет электронные версии произведений, а занимается лишь коллекционированием и каталогизацией ссылок, присылаемых и публикуемых на форуме нашими читателями. Если вы являетесь правообладателем какого-либо представленного материала и не желаете, чтобы ссылка на него находилась в нашем каталоге, свяжитесь с нами, и мы незамедлительно удалим ее. Файлы для обмена на трекере предоставлены пользователями сайта, и администрация не несет ответственности за их содержание. Просьба не заливать файлы, защищенные авторскими правами, а также файлы нелегального содержания!