[ Сегодня идет свободное скачивание без начисления Download ]


Статистика раздачи
Нет
 
   
 
 
 
WWE Edge is a new champion pack [2006 - 2011 гг., Рестлинг, SatRip]
Fuck this retirement!!
Вид спорта: Рестлинг
Участники: Edge, John Cena, The Undertaker, Batista, Chris Jericho и др. звезды WWE
Комментарий: Профессиональный (двухголосый)
Язык комментариев: Английский
Описание: Все 11 матчей Эджа, в которых он СТАНОВИЛСЯ чемпионом, а также два матча за МИТБ, прощальный матч на WM27, матч на EC2011 и несколько промо, в т.ч. прощальные.
Из них:
WM21 mitb 1/2
triple treat Armageddon 2007
TLC one night stand 2008 1/2
Triple treat Survivor series 2008
Singles Royal Rumble 2009 3/4
EC No way out 2009 1/4
Last man standing Backlash 2009 1/2
TLC TLC 2010 1/4
EC EC 2011 1/4
!!!!!!!!!-

первое чемпионство

Money in the bank ladder match, Wrestlemania 21
Chris Jericho vs Edge vs Shelton Benjamin vs Kane vs Christian vs Chris Benoit
Format : AVI
Format/Info : Audio Video Interleave
File size : 229 MiB
Duration : 21mn 30s
Overall bit rate : 1 491 Kbps
Format : MPEG-4 Visual
Codec ID : XVID
Width : 512 pixels
Height : 384 pixels
Format : MPEG Audio
Format version : Version 1
Format profile : Layer 3
Mode : Joint stereo
Format_Settings_ModeExtension : MS Stereo
Codec ID : 55
Codec ID/Hint : MP3
Duration : 21mn 30s
Bit rate mode : Variable
Bit rate : 105 Kbps
Singles match New Year's Revolution 2006 for the WWE championship
John Cena (c) vs Edge
Format : AVI
Format/Info : Audio Video Interleave
File size : 107 MiB
Duration : 11mn 5s
Overall bit rate : 1 345 Kbps
Video
ID : 0
Format : MPEG-4 Visual
Format profile : Advanced Simple@L5
Format settings, BVOP : Yes
Format settings, QPel : No
Format settings, GMC : No warppoints
Format settings, Matrix : Default (H.263)
Codec ID : XVID
Codec ID/Hint : XviD
Duration : 11mn 5s
Bit rate : 1 203 Kbps
Width : 512 pixels
Height : 384 pixels
Display aspect ratio : 4:3
Frame rate : 29.970 fps
Resolution : 8 bits
Colorimetry : 4:2:0
Scan type : Progressive
Bits/(Pixel*Frame) : 0.204
Stream size : 95.5 MiB (89%)
Writing library : XviD 1.1.2 (UTC 2006-11-01)
Audio
ID : 1
Format : MPEG Audio
Format version : Version 1
Format profile : Layer 3
Mode : Joint stereo
Format_Settings_ModeExtension : MS Stereo
Codec ID : 55
Codec ID/Hint : MP3
Duration : 11mn 5s
Bit rate mode : Variable
Bit rate : 128 Kbps

второе

Raw 7.7.06, предматчевое промо
Format : AVI
Format/Info : Audio Video Interleave
File size : 67.4 MiB
Duration : 8mn 31s
Overall bit rate : 1 106 Kbps
Video
ID : 0
Format : MPEG-4 Visual
Format profile : Advanced Simple@L5
Format settings, BVOP : Yes
Format settings, QPel : No
Format settings, GMC : No warppoints
Format settings, Matrix : Custom
Codec ID : XVID
Codec ID/Hint : XviD
Duration : 8mn 31s
Bit rate : 972 Kbps
Width : 512 pixels
Height : 384 pixels
Display aspect ratio : 4:3
Frame rate : 29.970 fps
Resolution : 8 bits
Colorimetry : 4:2:0
Scan type : Progressive
Bits/(Pixel*Frame) : 0.165
Stream size : 59.2 MiB (88%)
Writing library : XviD 1.1.0 (UTC 2005-11-22)
Audio
ID : 1
Format : MPEG Audio
Format version : Version 1
Format profile : Layer 3
Mode : Joint stereo
Format_Settings_ModeExtension : MS Stereo
Codec ID : 55
Codec ID/Hint : MP3
Duration : 8mn 31s
Bit rate mode : Variable
Bit rate : 120 Kbps
Raw 7.7.06.
Triple Treat match for the WWE championship
RVD (c) vs John Cena vs Edge
Format : AVI
Format/Info : Audio Video Interleave
File size : 144 MiB
Duration : 17mn 9s
Overall bit rate : 1 172 Kbps
Video
ID : 0
Format : MPEG-4 Visual
Format profile : Advanced Simple@L5
Format settings, BVOP : Yes
Format settings, QPel : No
Format settings, GMC : No warppoints
Format settings, Matrix : Custom
Codec ID : XVID
Codec ID/Hint : XviD
Duration : 17mn 9s
Bit rate : 1 039 Kbps
Width : 512 pixels
Height : 384 pixels
Display aspect ratio : 4:3
Frame rate : 29.970 fps
Resolution : 8 bits
Colorimetry : 4:2:0
Scan type : Progressive
Bits/(Pixel*Frame) : 0.176
Stream size : 127 MiB (89%)
Writing library : XviD 1.1.0 (UTC 2005-11-22)
Audio
ID : 1
Format : MPEG Audio
Format version : Version 1
Format profile : Layer 3
Mode : Joint stereo
Format_Settings_ModeExtension : MS Stereo
Codec ID : 55
Codec ID/Hint : MP3
Duration : 17mn 9s
Bit rate mode : Variable
Bit rate : 120 Kbps

третье

Raw 5.5/2007 Предматчевое промо
Format : AVI
Format/Info : Audio Video Interleave
File size : 8.10 MiB
Duration : 1mn 52s
Overall bit rate : 604 Kbps
Video
ID : 0
Format : MPEG-4 Visual
Format profile : Advanced Simple@L5
Format settings, BVOP : Yes
Format settings, QPel : No
Format settings, GMC : No warppoints
Format settings, Matrix : Default (H.263)
Codec ID : DX50
Codec ID/Hint : DivX 5
Duration : 1mn 52s
Bit rate : 463 Kbps
Width : 512 pixels
Height : 384 pixels
Display aspect ratio : 4:3
Frame rate : 29.970 fps
Resolution : 8 bits
Colorimetry : 4:2:0
Scan type : Progressive
Bits/(Pixel*Frame) : 0.079
Stream size : 6.22 MiB (77%)
Writing library : XviD 1.2.0.dev47 (UTC 2006-11-01)
Audio
ID : 1
Format : MPEG Audio
Format version : Version 1
Format profile : Layer 3
Mode : Joint stereo
Format_Settings_ModeExtension : MS Stereo
Codec ID : 55
Codec ID/Hint : MP3
Duration : 1mn 52s
Bit rate mode : Constant
Bit rate : 128 Kbps
Smackdown 10.5.07 Singles match for the WHC
Undertaker (c) vs Edge
Format : AVI
Format/Info : Audio Video Interleave
File size : 75.5 MiB
Duration : 10mn 15s
Overall bit rate : 1 028 Kbps
Video
ID : 0
Format : MPEG-4 Visual
Format profile : Advanced Simple@L5
Format settings, BVOP : Yes
Format settings, QPel : No
Format settings, GMC : No warppoints
Format settings, Matrix : Default (H.263)
Codec ID : XVID
Codec ID/Hint : XviD
Duration : 10mn 15s
Bit rate : 889 Kbps
Width : 512 pixels
Height : 384 pixels
Display aspect ratio : 4:3
Frame rate : 29.970 fps
Resolution : 8 bits
Colorimetry : 4:2:0
Scan type : Progressive
Bits/(Pixel*Frame) : 0.151
Stream size : 65.2 MiB (86%)
Writing library : XviD 1.1.2 (UTC 2006-11-01)
Audio
ID : 1
Format : MPEG Audio
Format version : Version 1
Format profile : Layer 3
Mode : Joint stereo
Format_Settings_ModeExtension : MS Stereo
Codec ID : 55
Codec ID/Hint : MP3
Duration : 10mn 15s
Bit rate mode : Variable
Bit rate : 128 Kbps
Raw 5/5/07 singles match for the MITB briefcase
Edge vs Kennedy
Format : AVI
Format/Info : Audio Video Interleave
File size : 46.3 MiB
Duration : 5mn 39s
Overall bit rate : 1 145 Kbps
Video
ID : 0
Format : MPEG-4 Visual
Format profile : Advanced Simple@L5
Format settings, BVOP : Yes
Format settings, QPel : No
Format settings, GMC : No warppoints
Format settings, Matrix : Default (H.263)
Codec ID : DX50
Codec ID/Hint : DivX 5
Duration : 5mn 39s
Bit rate : 1 005 Kbps
Width : 512 pixels
Height : 384 pixels
Display aspect ratio : 4:3
Frame rate : 29.970 fps
Resolution : 8 bits
Colorimetry : 4:2:0
Scan type : Progressive
Bits/(Pixel*Frame) : 0.171
Stream size : 40.7 MiB (88%)
Writing library : XviD 1.2.0.dev47 (UTC 2006-11-01)
Audio
ID : 1
Format : MPEG Audio
Format version : Version 1
Format profile : Layer 3
Mode : Joint stereo
Format_Settings_ModeExtension : MS Stereo
Codec ID : 55
Codec ID/Hint : MP3
Duration : 5mn 39s
Bit rate mode : Constant
Bit rate : 128 Kbps

четвертое

Armageddon 2007 triple treat match for the WHC
Undertaker (c) vs Batista vs Edge
Format : AVI
Format/Info : Audio Video Interleave
File size : 279 MiB
Duration : 25mn 51s
Overall bit rate : 1 508 Kbps
Video
ID : 0
Format : MPEG-4 Visual
Format profile : Advanced Simple@L5
Format settings, BVOP : Yes
Format settings, QPel : No
Format settings, GMC : No warppoints
Format settings, Matrix : Default (H.263)
Codec ID : XVID
Codec ID/Hint : XviD
Duration : 25mn 51s
Bit rate : 1 368 Kbps
Width : 512 pixels
Height : 384 pixels
Display aspect ratio : 4:3
Frame rate : 29.970 fps
Resolution : 8 bits
Colorimetry : 4:2:0
Scan type : Progressive
Bits/(Pixel*Frame) : 0.232
Stream size : 253 MiB (91%)
Writing library : XviD 1.2.0SMP (UTC 2006-01-08)
Audio
ID : 1
Format : MPEG Audio
Format version : Version 1
Format profile : Layer 3
Mode : Joint stereo
Format_Settings_ModeExtension : MS Stereo
Codec ID : 55
Codec ID/Hint : MP3
Duration : 25mn 51s
Bit rate mode : Variable
Bit rate : 128 Kbps

пятое

One night stand 2008 TLC match for the WHC
Undertaker(c) vs Edge
Format : MPEG-4
Format profile : Base Media
Codec ID : isom
File size : 316 MiB
Duration : 40mn 17s
Overall bit rate : 1 098 Kbps
Movie name : 8.mp4
Writing application : Lavf52.78.3
Video
ID : 1
Format : MPEG-4 Visual
Format profile : Advanced Simple@L5
Format settings, BVOP : Yes
Format settings, QPel : No
Format settings, GMC : No warppoints
Format settings, Matrix : Default (H.263)
Codec ID : 20
Duration : 40mn 17s
Bit rate mode : Variable
Bit rate : 969 Kbps
Width : 624 pixels
Height : 352 pixels
Display aspect ratio : 16:9
Frame rate mode : Constant
Frame rate : 29.970 fps
Resolution : 8 bits
Colorimetry : 4:2:0
Scan type : Progressive
Bits/(Pixel*Frame) : 0.147
Stream size : 279 MiB (88%)
Writing library : XviD 1.1.2 (UTC 2006-11-01)
Audio
ID : 2
Format : MPEG Audio
Format version : Version 1
Format profile : Layer 3
Mode : Joint stereo
Format_Settings_ModeExtension : MS Stereo
Codec ID : 6B
Duration : 40mn 17s
Bit rate mode : Variable
Bit rate : 123 Kbps

шестое

Survivor series 2008 triple treat match for the WWE champ
HHH vs Vladimir Kozlov vs Edge
Format : AVI
Format/Info : Audio Video Interleave
File size : 237 MiB
Duration : 29mn 8s
Overall bit rate : 1 136 Kbps
Video
ID : 0
Format : MPEG-4 Visual
Format profile : Advanced Simple@L5
Format settings, BVOP : Yes
Format settings, QPel : No
Format settings, GMC : No warppoints
Format settings, Matrix : Default (H.263)
Codec ID : DX50
Codec ID/Hint : DivX 5
Duration : 29mn 8s
Bit rate : 998 Kbps
Width : 640 pixels
Height : 368 pixels
Display aspect ratio : 16:9
Frame rate : 23.976 fps
Resolution : 8 bits
Colorimetry : 4:2:0
Scan type : Progressive
Bits/(Pixel*Frame) : 0.177
Stream size : 208 MiB (88%)
Writing library : XviD 1.1.2 (UTC 2006-11-01)
Audio
ID : 1
Format : MPEG Audio
Format version : Version 1
Format profile : Layer 3
Mode : Joint stereo
Format_Settings_ModeExtension : MS Stereo
Codec ID : 55
Codec ID/Hint : MP3
Duration : 29mn 8s
Bit rate mode : Variable
Bit rate : 128 Kbps

седьмое

Royal Rumble 2009 singles match for the WWE champ
Jeff Hardy (c) vs Edge
Format : AVI
Format/Info : Audio Video Interleave
File size : 263 MiB
Duration : 32mn 18s
Overall bit rate : 1 138 Kbps
Video
ID : 0
Format : MPEG-4 Visual
Format profile : Advanced Simple@L5
Format settings, BVOP : Yes
Format settings, QPel : No
Format settings, GMC : No warppoints
Format settings, Matrix : Default (H.263)
Codec ID : DX50
Codec ID/Hint : DivX 5
Duration : 32mn 18s
Bit rate : 1 001 Kbps
Width : 640 pixels
Height : 368 pixels
Display aspect ratio : 16:9
Frame rate : 23.976 fps
Resolution : 8 bits
Colorimetry : 4:2:0
Scan type : Progressive
Bits/(Pixel*Frame) : 0.177
Stream size : 231 MiB (88%)
Writing library : XviD 1.1.2 (UTC 2006-11-01)
Audio
ID : 1
Format : MPEG Audio
Format version : Version 1
Format profile : Layer 3
Mode : Joint stereo
Format_Settings_ModeExtension : MS Stereo
Codec ID : 55
Codec ID/Hint : MP3
Duration : 32mn 18s
Bit rate mode : Constant
Bit rate : 128 Kbps

восьмое

No way out 2009 Elimination chamber for the WHC
John Cena (c) vs Edge vs Chris Jericho vs Rey Mysterio vs Kane vs Mike Knox
Format : AVI
Format/Info : Audio Video Interleave
File size : 363 MiB
Duration : 43mn 44s
Overall bit rate : 1 160 Kbps
Writing library : VirtualDub build 29896/release
Video
ID : 0
Format : MPEG-4 Visual
Format profile : Advanced Simple@L5
Format settings, BVOP : Yes
Format settings, QPel : No
Format settings, GMC : No warppoints
Format settings, Matrix : Default (H.263)
Codec ID : XVID
Codec ID/Hint : XviD
Duration : 43mn 44s
Bit rate : 1 023 Kbps
Width : 640 pixels
Height : 368 pixels
Display aspect ratio : 16:9
Frame rate : 25.000 fps
Resolution : 8 bits
Colorimetry : 4:2:0
Scan type : Progressive
Bits/(Pixel*Frame) : 0.174
Stream size : 320 MiB (88%)
Writing library : XviD 1.1.2 (UTC 2006-11-01)
Audio
ID : 1
Format : MPEG Audio
Format version : Version 1
Format profile : Layer 3
Mode : Joint stereo
Format_Settings_ModeExtension : MS Stereo
Codec ID : 55
Codec ID/Hint : MP3
Duration : 43mn 43s
Bit rate mode : Constant
Bit rate : 128 Kbps

девятое

Backlash 2009 Last Man Standing for the WWE champ
John Cena (c) vs Edge
Format : AVI
Format/Info : Audio Video Interleave
File size : 541 MiB
Duration : 40mn 56s
Overall bit rate : 1 849 Kbps
Video
ID : 0
Format : MPEG-4 Visual
Format profile : Advanced Simple@L5
Format settings, BVOP : Yes
Format settings, QPel : No
Format settings, GMC : No warppoints
Format settings, Matrix : Default (H.263)
Codec ID : DX50
Codec ID/Hint : DivX 5
Duration : 40mn 56s
Bit rate : 1 651 Kbps
Width : 624 pixels
Height : 352 pixels
Display aspect ratio : 16:9
Frame rate : 29.970 fps
Resolution : 8 bits
Colorimetry : 4:2:0
Scan type : Progressive
Bits/(Pixel*Frame) : 0.251
Stream size : 484 MiB (89%)
Writing library : XviD 1.2.0.dev47 (UTC 2006-11-01)
Audio
ID : 1
Format : MPEG Audio
Format version : Version 1
Format profile : Layer 3
Mode : Joint stereo
Format_Settings_ModeExtension : MS Stereo
Codec ID : 55
Codec ID/Hint : MP3
Duration : 40mn 56s
Bit rate mode : Variable
Bit rate : 181 Kbps

десятое

TLC 2010 TLC match for the WHC
Kane (c) vs Rey Mysterio vs Edge vs Del Rio
Format : Matroska
File size : 290 MiB
Duration : 34mn 24s
Overall bit rate : 1 178 Kbps
Movie name : Avidemux
Writing application : Lavf52.78.3
Writing library : Lavf52.78.3
Video
ID : 1
Format : MPEG-4 Visual
Format profile : Advanced Simple@L5
Format settings, BVOP : Yes
Format settings, QPel : No
Format settings, GMC : No warppoints
Format settings, Matrix : Default (H.263)
Codec ID : V_MPEG4/ISO/ASP
Codec ID/Info : Advanced Simple Profile
Duration : 34mn 21s
Width : 624 pixels
Height : 352 pixels
Display aspect ratio : 16:9
Frame rate : 29.970 fps
Resolution : 8 bits
Colorimetry : 4:2:0
Scan type : Progressive
Writing library : XviD 1.2.1 (UTC 2008-12-04)
Audio
ID : 2
Format : MPEG Audio
Format version : Version 1
Format profile : Layer 3
Mode : Joint stereo
Format_Settings_ModeExtension : MS Stereo
Codec ID : A_MPEG/L3
Codec ID/Hint : MP3
Duration : 34mn 24s
Bit rate mode : Variable
Channel(s) : 2 channels
Sampling rate : 48.0 KHz

одиннадцатое

Smackdown 25.2.11 singles match for the WHC
Dolph Ziggler (c) vs Edge
Format : MPEG-4
Format profile : Base Media
Codec ID : isom
File size : 152 MiB
Duration : 13mn 20s
Overall bit rate : 1 589 Kbps
Movie name : 11.mp4
Writing application : Lavf52.78.3
Video
ID : 1
Format : AVC
Format/Info : Advanced Video Codec
Format profile : High@L3.1
Format settings, CABAC : Yes
Format settings, ReFrames : 4 frames
Codec ID : avc1
Codec ID/Info : Advanced Video Coding
Duration : 13mn 20s
Bit rate mode : Variable
Bit rate : 1 393 Kbps
Width : 704 pixels
Height : 400 pixels
Display aspect ratio : 16:9
Frame rate mode : Constant
Frame rate : 25.000 fps
Resolution : 8 bits
Colorimetry : 4:2:0
Scan type : Progressive
Bits/(Pixel*Frame) : 0.198
Stream size : 133 MiB (88%)
Audio
ID : 2
Format : AAC
Format/Info : Advanced Audio Codec
Format version : Version 4
Format profile : LC
Format settings, SBR : No
Codec ID : 40
Duration : 13mn 20s
Bit rate mode : Variable
Bit rate : 192 Kbps

ЕС2011

Elimination Chamber 2011 EC match for the WHC
Edge (c) vs Rey Mysterio vs Kane vs Wade Barrett vs Big Show vs Drew McIntyre
Format : AVI
Format/Info : Audio Video Interleave
File size : 474 MiB
Duration : 53mn 1s
Overall bit rate : 1 250 Kbps
Video
ID : 0
Format : MPEG-4 Visual
Format profile : Advanced Simple@L5
Format settings, BVOP : Yes
Format settings, QPel : No
Format settings, GMC : No warppoints
Format settings, Matrix : Default (H.263)
Codec ID : DX50
Codec ID/Hint : DivX 5
Duration : 53mn 1s
Bit rate : 1 112 Kbps
Width : 624 pixels
Height : 352 pixels
Display aspect ratio : 16:9
Frame rate : 25.000 fps
Resolution : 8 bits
Colorimetry : 4:2:0
Scan type : Progressive
Bits/(Pixel*Frame) : 0.203
Stream size : 422 MiB (89%)
Writing library : XviD 1.2.1 (UTC 2008-12-04)
Audio
ID : 1
Format : MPEG Audio
Format version : Version 1
Format profile : Layer 3
Mode : Joint stereo
Format_Settings_ModeExtension : MS Stereo
Codec ID : 55
Codec ID/Hint : MP3
Duration : 53mn 1s
Bit rate mode : Constant
Bit rate : 128 Kbps

последний матч

Wrestlemania 27 Singles match for the WHC
Edge(c) vs Del Rio
Format : MPEG-4
Format profile : Base Media
Codec ID : isom
File size : 204 MiB
Duration : 23mn 8s
Overall bit rate : 1 233 Kbps
Movie name : ццццць.mp4
Writing application : Lavf52.78.3
Video
ID : 1
Format : MPEG-4 Visual
Format profile : Advanced Simple@L5
Format settings, BVOP : Yes
Format settings, QPel : No
Format settings, GMC : No warppoints
Format settings, Matrix : Default (H.263)
Codec ID : 20
Duration : 23mn 8s
Bit rate mode : Variable
Bit rate : 1 100 Kbps
Width : 624 pixels
Height : 352 pixels
Display aspect ratio : 16:9
Frame rate mode : Constant
Frame rate : 25.000 fps
Resolution : 8 bits
Colorimetry : 4:2:0
Scan type : Progressive
Bits/(Pixel*Frame) : 0.200
Stream size : 182 MiB (89%)
Writing library : XviD 1.0.3 (UTC 2004-12-20)
Audio
ID : 2
Format : MPEG Audio
Format version : Version 1
Format profile : Layer 3
Mode : Joint stereo
Format_Settings_ModeExtension : MS Stereo
Codec ID : 6B
Duration : 23mn 8s
Bit rate mode : Constant
Bit rate : 128 Kbps

прощальные речи

Edge's retirement speeches
Format : MPEG-4
Format profile : Base Media
Codec ID : isom
File size : 129 MiB
Duration : 11mn 0s
Overall bit rate : 1 633 Kbps
Movie name : raw.mp4
Writing application : Lavf52.78.3
Video
ID : 1
Format : AVC
Format/Info : Advanced Video Codec
Format profile : High@L3.1
Format settings, CABAC : Yes
Format settings, ReFrames : 4 frames
Codec ID : avc1
Codec ID/Info : Advanced Video Coding
Duration : 11mn 0s
Bit rate mode : Variable
Bit rate : 1 434 Kbps
Width : 704 pixels
Height : 400 pixels
Display aspect ratio : 16:9
Frame rate mode : Constant
Frame rate : 29.970 fps
Resolution : 8 bits
Colorimetry : 4:2:0
Scan type : Progressive
Bits/(Pixel*Frame) : 0.170
Stream size : 113 MiB (88%)
Audio
ID : 2
Format : AAC
Format/Info : Advanced Audio Codec
Format version : Version 4
Format profile : LC
Format settings, SBR : No
Codec ID : 40
Duration : 11mn 0s
Bit rate mode : Variable
Bit rate : 192 Kbps
Format : MPEG-4
Format profile : Base Media
Codec ID : isom
File size : 173 MiB
Duration : 14mn 12s
Overall bit rate : 1 705 Kbps
Movie name : смак.mp4
Writing application : Lavf52.78.3
Video
ID : 1
Format : MPEG-4 Visual
Format profile : Advanced Simple@L5
Format settings, BVOP : Yes
Format settings, QPel : No
Format settings, GMC : No warppoints
Format settings, Matrix : Default (H.263)
Codec ID : 20
Duration : 14mn 12s
Bit rate mode : Variable
Bit rate : 1 573 Kbps
Width : 624 pixels
Height : 352 pixels
Display aspect ratio : 16:9
Frame rate mode : Constant
Frame rate : 29.970 fps
Resolution : 8 bits
Colorimetry : 4:2:0
Scan type : Progressive
Bits/(Pixel*Frame) : 0.239
Stream size : 160 MiB (92%)
Writing library : XviD 1.3.0.dev55
Audio
ID : 2
Format : MPEG Audio
Format version : Version 1
Format profile : Layer 3
Mode : Joint stereo
Format_Settings_ModeExtension : MS Stereo
Codec ID : 6B
Duration : 14mn 12s
Bit rate mode : Variable
Bit rate : 126 Kbps
Format : MPEG-4
Format profile : Base Media
Codec ID : isom
File size : 209 MiB
Duration : 19mn 43s
Overall bit rate : 1 482 Kbps
Movie name : smack2.mp4
Writing application : Lavf52.78.3
Video
ID : 1
Format : MPEG-4 Visual
Format profile : Advanced Simple@L5
Format settings, BVOP : Yes
Format settings, QPel : No
Format settings, GMC : No warppoints
Format settings, Matrix : Default (H.263)
Codec ID : 20
Duration : 19mn 43s
Bit rate mode : Variable
Bit rate : 1 350 Kbps
Width : 624 pixels
Height : 352 pixels
Display aspect ratio : 16:9
Frame rate mode : Constant
Frame rate : 29.970 fps
Resolution : 8 bits
Colorimetry : 4:2:0
Scan type : Progressive
Bits/(Pixel*Frame) : 0.205
Stream size : 191 MiB (91%)
Writing library : XviD 1.3.0.dev55
Audio
ID : 2
Format : MPEG Audio
Format version : Version 1
Format profile : Layer 3
Mode : Joint stereo
Format_Settings_ModeExtension : MS Stereo
Codec ID : 6B
Duration : 19mn 43s
Bit rate mode : Variable
Bit rate : 126 Kbps
Качество: SATRip
Видео кодек: XviD
Аудио кодек: MP3

Скриншоты

new year revolution 1 champ

triple treat raw 2006 2 champ

kennedy promo raw 2007

mitb2 cash

Raw 2007 vs Kennedy

one night stand 2008

survivor series 2008

royal rumble 2009

no way out 2009

TLC 2010

Smackdown 25/2/11

EC 2011

Armageddon 2007

WM 27

Retirement speech

[Цитировать]



Показать сообщения:    

Текущее время: 23-Июл 20:49

Часовой пояс: UTC + 6


Вы не можете начинать темы
Вы не можете отвечать на сообщения
Вы не можете редактировать свои сообщения
Вы не можете удалять свои сообщения
Вы не можете голосовать в опросах
Вы не можете прикреплять файлы к сообщениям
Вы не можете скачивать файлы

!ВНИМАНИЕ!
Сайт не предоставляет электронные версии произведений, а занимается лишь коллекционированием и каталогизацией ссылок, присылаемых и публикуемых на форуме нашими читателями. Если вы являетесь правообладателем какого-либо представленного материала и не желаете, чтобы ссылка на него находилась в нашем каталоге, свяжитесь с нами, и мы незамедлительно удалим ее. Файлы для обмена на трекере предоставлены пользователями сайта, и администрация не несет ответственности за их содержание. Просьба не заливать файлы, защищенные авторскими правами, а также файлы нелегального содержания!