[ Сегодня идет свободное скачивание без начисления Download ]


Статистика раздачи
Нет
 
   
 
 
 
 
-Мерлин / MerlinПолный 4 сезон- Год выпуска: 2011
Страна: Великобритания
Жанр: Фэнтези, драма, приключения
Продолжительность: 13 x ~44 мин
Перевод: Профессиональный (многоголосый, закадровый) - ТВ3 Россия
Субтитры: присутствуют-В ролях: Колин Морган (Мерлин), Брэдли Джеймс (Артур), Энджел Колби (Гвиневра), Кэти МакГрат (Moргана), Энтони Хэд (Утер Пендрагон), Ричард Уилсон (Гаюс), Эмилия Фокс (Моргауза), Джон Херт (голос Великого Дракона)
Режиссёр: Элис Тротон, Джереми Уэбб, Алекс Пиллаи-
Королевство Камелот погружено в хаос. Чародейство и волшебство сеют смуту среди людей. Пришедший к власти Утер Пендрагон запрещает колдовство под страхом смерти, изгоняет волшебников, убивает всех драконов, оставляя в назидание лишь одного. Через 20 лет в Камелот прибывает Мерлин, уроженец маленькой деревушки, рождённый с волшебными способностями. Он становится помощником придворного лекаря, Гаюса, который помогает ему найти предназначение его даров. Выполняя одно из поручений Гаюса, он ввязывается в стычку с воином, который оказывается сыном короля, Артуром, и попадает в тюрьму. Там он впервые слышит зов дракона, не доступный никому из обычных людей. Этот голос преследует Мерлина во сне, и в конце концов он следует ему в подземелье замка, где заточен дракон. Он открывает Мерлину, что его предназначение - помочь принцу Артуру, будущему королю Камелота, объединить враждующие королевства острова Альбион.-
Качество: HDRip
Формат: AVI
Видео кодек: XviD
Аудио кодек: AC3
Видео: 720x400 (16:9), 25.000 fps, ~2000 kbps, ~0.280 bit/pixel
Аудио Rus: 48 kHz, 2 ch, ~192 kbps |ТВ3 Россия|
Аудио Eng: 48 kHz, 2 ch, ~192 kbps |Original|-

Список серий

01. "Самый тёмный час. Часть 1 (The Darkest Hour (Part 1))"
02. "Самый тёмный час. Часть 2 (The Darkest Hour (Part 2))"
03. "День гнева (The Wicked Day)"
04. "Аитуза (Aithusa)"
05. "Яблоко от яблони (His Father's Son)"
06. "Слуга двух господ (A Servant of Two Masters)"
07. "Тайный сообщник (The Secret Sharer)"
08. "Ламия (Lamia)"
09. "Ланселот Озёрный (Lancelot du Lac)"
10. "Предвестник новой эпохи (A Herald of the New Age)"
11. "Сердце охотника (The Hunter's Heart)"
12. "Меч в камне. Часть 1 (The Sword in the Stone (Part 1))"
13. "Меч в камне. Часть 2 (The Sword in the Stone (Part 2))"

MI

Общее
Полное имя : F:\Merlin.s04.hdrip.rus.eng\Merlin.s04e01.hdrip.rus.eng.avi
Формат : AVI
Формат/Информация : Audio Video Interleave
Размер файла : 748 Мбайт
Продолжительность : 43 м.
Общий поток : 2398 Кбит/сек
Программа кодирования : VirtualDubMod 1.5.10.2 (build 2540/release)
Библиотека кодирования : VirtualDubMod build 2540/release
Видео
Идентификатор : 0
Формат : MPEG-4 Visual
Профиль формата : Advanced Simple@L5
Параметр BVOP формата : 1
Параметр QPel формата : Нет
Параметр GMC формата : Без точки перехода
Параметр матрицы формата : Выборочная
Идентификатор кодека : XVID
Идентификатор кодека/Подсказка : XviD
Продолжительность : 43 м.
Битрейт : 2000 Кбит/сек
Ширина : 720 пикс.
Высота : 400 пикс.
Соотношение сторон : 16:9
Частота кадров : 25,000 кадр/сек
Цветовое пространство : YUV
Подвыборка цветности : 4:2:0
Битовая глубина : 8 бит
Тип развёртки : Прогрессивная
Метод сжатия : С потерями
Бит/(Пиксели*Кадры) : 0.278
Размер потока : 624 Мбайт (83%)
Библиотека кодирования : XviD 65
Аудио #1
Идентификатор : 1
Формат : AC-3
Формат/Информация : Audio Coding 3
Расширение режима : CM (complete main)
Идентификатор кодека : 2000
Продолжительность : 43 м.
Вид битрейта : Постоянный
Битрейт : 192 Кбит/сек
Каналы : 2 канала
Расположение каналов : Front: L R
Частота : 48,0 КГц
Битовая глубина : 16 бит
Метод сжатия : С потерями
Размер потока : 59,9 Мбайт (8%)
Выравнивание : Разделение по промежуткам
Продолжительность промежутка : 40 мс. (1,00 видеокадр)
Время предзагрузки промежутка : 500 ms
Аудио #2
Идентификатор : 2
Формат : AC-3
Формат/Информация : Audio Coding 3
Расширение режима : CM (complete main)
Идентификатор кодека : 2000
Продолжительность : 43 м.
Вид битрейта : Постоянный
Битрейт : 192 Кбит/сек
Каналы : 2 канала
Расположение каналов : Front: L R
Частота : 48,0 КГц
Битовая глубина : 16 бит
Метод сжатия : С потерями
Размер потока : 59,9 Мбайт (8%)
Выравнивание : Разделение по промежуткам
Продолжительность промежутка : 40 мс. (1,00 видеокадр)
Время предзагрузки промежутка : 500 ms

Обновление раздачи

Внимание! Раздача ведётся путём добавления новых серий
При каждом добавлении создаётся новый торрент. Чтобы начать докачку новой серии, пользователям необходимо сделать следующее:
1. Остановить скачивание,
2. Удалить старый торрент у себя из клиента (старые серии удалять не надо),
3. Скачать новый торрент и запустить его у себя в клиенте вместо старого, при этом указать клиенту путь в старую папку куда и должно происходить скачивание новых серий.
Ваш клиент при этом должен произвести хеширование (проверку) старой папки (если не производит сам - помогите ему сделать это), и будет докачивать только те серии которых у вас ещё нет. Старые серии при этом не удаляются, а продолжают раздаваться!
Если вы уже удалили старые серии, то предотвратить повторную закачку старых серий можно, отжав галочку в соответствующих местах при запуске нового торрента.

[Цитировать]



Показать сообщения:    

Текущее время: 25-Сен 06:46

Часовой пояс: UTC + 6


Вы не можете начинать темы
Вы не можете отвечать на сообщения
Вы не можете редактировать свои сообщения
Вы не можете удалять свои сообщения
Вы не можете голосовать в опросах
Вы не можете прикреплять файлы к сообщениям
Вы не можете скачивать файлы

!ВНИМАНИЕ!
Сайт не предоставляет электронные версии произведений, а занимается лишь коллекционированием и каталогизацией ссылок, присылаемых и публикуемых на форуме нашими читателями. Если вы являетесь правообладателем какого-либо представленного материала и не желаете, чтобы ссылка на него находилась в нашем каталоге, свяжитесь с нами, и мы незамедлительно удалим ее. Файлы для обмена на трекере предоставлены пользователями сайта, и администрация не несет ответственности за их содержание. Просьба не заливать файлы, защищенные авторскими правами, а также файлы нелегального содержания!