[ Сегодня идет свободное скачивание без начисления Download ]


Статистика раздачи
Нет
 
   
 
Top  
 
 
Информация о фильме
Название: 33
Оригинальное название: The 33
Год выпуска: 2015
Страна: США, Чили
Жанр: драма, биография, история-Перевод: Профессиональный (многоголосый)[Ideafilm]
Продолжительность: 02:07:20-Режиссер: Патрисия Ригген
В ролях: Антонио Бандерас (Mario Sepúlveda), Родриго Санторо (Laurence Golborne), Жюльет Бинош (María Segovia), Джеймс Бролин (Jeff Hart), Лу Даймонд Филлипс (Don Lucho), Марио Касас (Álex Vega), Джейкоб Варгас (Edison «Elvis» Peña), Хуан Пабло Раба (Darío Segovia), Оскар Нунез (Yonni Barrios), Теноч Уэрта (Carlos Mamani), Марко Антонио Тревиньо (José Henriquez), Адриана Барраса (Marta Salinas)-Описание:
Фильм, основанный на реальных событиях, расскажет о тридцати трех чилийских шахтерах, которые в 2010 году на 69 дней оказались в ловушке под землей.-Рейтинг:

MPAA: PG-13 - Детям до 13 лет просмотр не желателен-Качество: WEB-DLRip-AVC
Формат: MKV
Видео: AVC, 1024x424 (2.40:1), 2089 kbps, 23,976 fps, 0,201 bpp
Аудио: AC3 / 5.1 / 48 kHz / 384 kbps / 16 bit
Семпл-Релиз от: by schultz / R.G. Resident-

ОтчетМедиаИнфо

General
Unique ID : 194439080566308239136886839018413058679 (0x92479AD1B1AE5934A62F1097E1F76A77)
Complete name : D:downloadThe.33.2015.WEB-DLRip-AVC by schultz R.G.Resident.mkv
Format : Matroska
Format version : Version 2
File size : 2.20 GiB
Duration : 2h 7mn
Overall bit rate : 2 475 Kbps
Encoded date : UTC 2015-12-13 08:34:12
Writing application : mkvmerge v6.1.0 ('Old Devil') built on Mar 4 2013 09:10:42
Writing library : libebml v1.3.0 + libmatroska v1.4.0
Video
ID : 1
Format : AVC
Format/Info : Advanced Video Codec
Format profile : High@L4.1
Format settings, CABAC : Yes
Format settings, ReFrames : 12 frames
Codec ID : V_MPEG4/ISO/AVC
Duration : 2h 7mn
Bit rate : 2 089 Kbps
Width : 1 024 pixels
Height : 424 pixels
Display aspect ratio : 2.40:1
Frame rate : 23.976 fps
Color space : YUV
Chroma subsampling : 4:2:0
Bit depth : 8 bits
Scan type : Progressive
Bits/(Pixel*Frame) : 0.201
Stream size : 1.82 GiB (82%)
Writing library : x264 core 130 r2273 b3065e6
Encoding settings : cabac=1 / ref=12 / deblock=1:-2:-2 / analyse=0x3:0x113 / me=umh / subme=11 / psy=1 / psy_rd=1.00:0.15 / mixed_ref=1 / me_range=32 / chroma_me=1 / trellis=2 / 8x8dct=1 / cqm=0 / deadzone=21,11 / fast_pskip=1 / chroma_qp_offset=-3 / threads=12 / lookahead_threads=2 / sliced_threads=0 / nr=0 / decimate=0 / interlaced=0 / bluray_compat=0 / constrained_intra=0 / bframes=9 / b_pyramid=2 / b_adapt=2 / b_bias=0 / direct=3 / weightb=1 / open_gop=0 / weightp=2 / keyint=240 / keyint_min=23 / scenecut=40 / intra_refresh=0 / rc_lookahead=40 / rc=2pass / mbtree=1 / bitrate=2089 / ratetol=1.0 / qcomp=0.60 / qpmin=0 / qpmax=69 / qpstep=4 / cplxblur=20.0 / qblur=0.5 / vbv_maxrate=17500 / vbv_bufsize=14000 / nal_hrd=none / ip_ratio=1.40 / aq=1:0.80
Default : Yes
Forced : No
Audio
ID : 2
Format : AC-3
Format/Info : Audio Coding 3
Mode extension : CM (complete main)
Codec ID : A_AC3
Duration : 2h 7mn
Bit rate mode : Constant
Bit rate : 384 Kbps
Channel(s) : 6 channels
Channel positions : Front: L C R, Side: L R, LFE
Sampling rate : 48.0 KHz
Bit depth : 16 bits
Compression mode : Lossy
Stream size : 350 MiB (16%)
Default : Yes
Forced : No

Скриншоты

[Цитировать]



Показать сообщения:    

Текущее время: 19-Авг 02:12

Часовой пояс: UTC + 6


Вы не можете начинать темы
Вы не можете отвечать на сообщения
Вы не можете редактировать свои сообщения
Вы не можете удалять свои сообщения
Вы не можете голосовать в опросах
Вы не можете прикреплять файлы к сообщениям
Вы не можете скачивать файлы

!ВНИМАНИЕ!
Сайт не предоставляет электронные версии произведений, а занимается лишь коллекционированием и каталогизацией ссылок, присылаемых и публикуемых на форуме нашими читателями. Если вы являетесь правообладателем какого-либо представленного материала и не желаете, чтобы ссылка на него находилась в нашем каталоге, свяжитесь с нами, и мы незамедлительно удалим ее. Файлы для обмена на трекере предоставлены пользователями сайта, и администрация не несет ответственности за их содержание. Просьба не заливать файлы, защищенные авторскими правами, а также файлы нелегального содержания!