[ Сегодня идет свободное скачивание без начисления Download ]


Статистика раздачи
Нет
 
   
 
Top  
 
 
Полицейская тачка / Cop Car
«Their first drive could be their last»
Русское название: Полицейская тачка
Оригинальное название: Cop Car
Год выпуска: 2015
Жанр: триллер, криминал
Выпущено: США
Режиссер: Джон Уоттс
В ролях: Кевин Бейкон , Джеймс Фридсон-Джексон , Хэйс Уэллфорд , Камрин Менхейм , Ши Уигхэм , Sean Hartley , Кира Седжвик , Loi Nguyen , Sit Lenh , Chuck Kull , Thomas Coates , Кэтлин Бентли
Перевод: Авторский (одноголосый)[М. Чадов]

Сюжет фильма:
Два 10-летних мальчишки находят заброшенный полицейский автомобиль и решают присвоить его себе. Обычная детская игра начинает приобретать пугающие черты после того, как шериф небольшого городка отправляется на поиски своей пропавшей машины.

Качество: BDRip-AVC
Формат: AVC (библиотека кодирования x.264)
Контейнер (Расширение): MKV
Видео: 960x402, 2440 Кбит/сек, 23,976 кадр/сек, 0,264 Бит/[Пиксели*Кадры]
Аудио №1: русский / AC3 / 5.1 / 48 kHz / 448 kbps / |Авторский, М. Чадов|
Аудио №2: английский / AC3 / 5.1 / 48 kHz / 448 kbps /
Навигация по главам(Чаптеры): есть
Продолжительность: 01:27:57

MediaInfo

Format : Matroska
Format version : Version 2
File size : 2.05 GiB
Duration : 1h 27mn
Overall bit rate : 3 333 Kbps
Movie name : Cop Car.(2015).BDRip-AVC.[denis100]
Encoded date : UTC 2015-12-18 09:44:48
Writing application : mkvmerge v5.8.0 ('No Sleep / Pillow') built on Sep 2 2012 15:37:04
Writing library : libebml v1.2.3 + libmatroska v1.3.0
Video
ID : 1
Format : AVC
Format/Info : Advanced Video Codec
Format profile : High@L4.1
Format settings, CABAC : Yes
Format settings, ReFrames : 11 frames
Codec ID : V_MPEG4/ISO/AVC
Duration : 1h 27mn
Bit rate : 2 440 Kbps
Width : 960 pixels
Height : 402 pixels
Display aspect ratio : 2.40:1
Frame rate : 23.976 fps
Color space : YUV
Chroma subsampling : 4:2:0
Bit depth : 8 bits
Scan type : Progressive
Bits/(Pixel*Frame) : 0.264
Stream size : 1.46 GiB (71%)
Title : Cop Car.(2015).BDRip-AVC.[denis100]
Writing library : x264 core 148 r2638 7599210
Encoding settings : cabac=1 / ref=11 / deblock=1:-3:-3 / analyse=0x3:0x133 / me=umh / subme=11 / psy=1 / psy_rd=1.00:0.05 / mixed_ref=1 / me_range=32 / chroma_me=1 / trellis=2 / 8x8dct=1 / cqm=0 / deadzone=21,11 / fast_pskip=0 / chroma_qp_offset=-3 / threads=6 / lookahead_threads=1 / sliced_threads=0 / nr=0 / decimate=1 / interlaced=0 / bluray_compat=0 / constrained_intra=0 / bframes=12 / b_pyramid=2 / b_adapt=2 / b_bias=0 / direct=3 / weightb=1 / open_gop=0 / weightp=2 / keyint=240 / keyint_min=23 / scenecut=40 / intra_refresh=0 / rc=2pass / mbtree=0 / bitrate=2440 / ratetol=1.0 / qcomp=0.60 / qpmin=0 / qpmax=69 / qpstep=4 / cplxblur=20.0 / qblur=0.5 / ip_ratio=1.40 / pb_ratio=1.30 / aq=1:0.90
Language : English
Default : Yes
Forced : No
Audio #1
ID : 2
Format : AC-3
Format/Info : Audio Coding 3
Mode extension : CM (complete main)
Codec ID : A_AC3
Duration : 1h 27mn
Bit rate mode : Constant
Bit rate : 448 Kbps
Channel(s) : 6 channels
Channel positions : Front: L C R, Side: L R, LFE
Sampling rate : 48.0 KHz
Bit depth : 16 bits
Compression mode : Lossy
Stream size : 282 MiB (13%)
Title : Авторский, М.Чадов
Language : Russian
Default : Yes
Forced : No
Audio #2
ID : 3
Format : AC-3
Format/Info : Audio Coding 3
Mode extension : CM (complete main)
Codec ID : A_AC3
Duration : 1h 27mn
Bit rate mode : Constant
Bit rate : 448 Kbps
Channel(s) : 6 channels
Channel positions : Front: L C R, Side: L R, LFE
Sampling rate : 48.0 KHz
Bit depth : 16 bits
Compression mode : Lossy
Stream size : 282 MiB (13%)
Language : English
Default : No
Forced : No
Menu
00:00:00.000 : en:00:00:00.000
00:05:28.286 : en:00:05:28.286
00:10:07.565 : en:00:10:07.565
00:14:33.039 : en:00:14:33.039
00:20:33.941 : en:00:20:33.941
00:23:46.717 : en:00:23:46.717
00:27:51.545 : en:00:27:51.545
00:30:35.208 : en:00:30:35.208
00:34:46.668 : en:00:34:46.668
00:40:16.331 : en:00:40:16.331
00:43:34.487 : en:00:43:34.487
00:48:27.613 : en:00:48:27.613
00:52:53.670 : en:00:52:53.670
00:56:34.516 : en:00:56:34.516
01:00:40.720 : en:01:00:40.720
01:05:07.320 : en:01:05:07.320
01:09:01.137 : en:01:09:01.137
01:15:33.154 : en:01:15:33.154
01:19:46.240 : en:01:19:46.240
01:23:46.480 : en:01:23:46.480

Скриншоты

[Цитировать]



Показать сообщения:    

Текущее время: 21-Авг 22:02

Часовой пояс: UTC + 6


Вы не можете начинать темы
Вы не можете отвечать на сообщения
Вы не можете редактировать свои сообщения
Вы не можете удалять свои сообщения
Вы не можете голосовать в опросах
Вы не можете прикреплять файлы к сообщениям
Вы не можете скачивать файлы

!ВНИМАНИЕ!
Сайт не предоставляет электронные версии произведений, а занимается лишь коллекционированием и каталогизацией ссылок, присылаемых и публикуемых на форуме нашими читателями. Если вы являетесь правообладателем какого-либо представленного материала и не желаете, чтобы ссылка на него находилась в нашем каталоге, свяжитесь с нами, и мы незамедлительно удалим ее. Файлы для обмена на трекере предоставлены пользователями сайта, и администрация не несет ответственности за их содержание. Просьба не заливать файлы, защищенные авторскими правами, а также файлы нелегального содержания!