[ Сегодня идет свободное скачивание без начисления Download ]


Статистика раздачи
Скачал: [ 1 ]
 
   
 
 
 
 
Как отключить обновления Windows 10 (2015) PCRec - Автор (режиссер): remontka.pro video
Жанр: Отключение обновлений Windows
Описание:
В этом видео автор рассказывает о разных способах отключения автоматических обновлений Windows 10 (т.е. установку обновлений) с помощью отключения служб обновления, редактора локальной групповой политики и бесплатных программ.
Продолжительность: 00:03:01
Качество видео: PCRec
Видео: AVC/H.264, 1920x1080, ~394 Kbps
Аудио: AAC, 2 ch, 125 Kbps, 44100 Hz, 44.1 kHz, CBR

Mediainfo:

Общее
Полное имя                               : E:\Видео с YouTube\Как отключить обновления Windows 10 [H.264_1080p] PCRec.mp4
Формат                                   : MPEG-4
Профиль формата                          : Base Media
Идентификатор кодека                     : isom (isom/iso2/avc1/mp41)
Размер файла                             : 11,4 Мбайт
Продолжительность                        : 3 м. 1 с.
Общий поток                              : 526 Кбит/сек
Программа кодирования                    : Lavf54.63.104
Видео
Идентификатор                            : 1
Формат                                   : AVC
Формат/Информация                        : Advanced Video Codec
Профиль формата                          : High@L4
Параметр CABAC формата                   : Да
Параметр ReFrames формата                : 3 кадра
Идентификатор кодека                     : avc1
Идентификатор кодека/Информация          : Advanced Video Coding
Продолжительность                        : 3 м. 1 с.
Битрейт                                  : 394 Кбит/сек
Ширина                                   : 1920 пикселей
Высота                                   : 1080 пикселей
Соотношение сторон                       : 16:9
Режим частоты кадров                     : Постоянный
Частота кадров                           : 25,000 кадров/сек
Цветовое пространство                    : YUV
Субдискретизация насыщенности            : 4:2:0
Битовая глубина                          : 8 бит
Тип развёртки                            : Прогрессивная
Бит/(Пиксели*Кадры)                      : 0.008
Размер потока                            : 8,53 Мбайт (75%)
Цветовой диапазон                        : Limited
Основные цвета                           : BT.709
Характеристики трансфера                 : BT.709
Коэффициенты матрицы                     : BT.709
Аудио
Идентификатор                            : 2
Формат                                   : AAC
Формат/Информация                        : Advanced Audio Codec
Профиль формата                          : LC
Идентификатор кодека                     : 40
Продолжительность                        : 3 м. 1 с.
Вид битрейта                             : Постоянный
Битрейт                                  : 126 Кбит/сек
Каналы                                   : 2 канала
Расположение каналов                     : Front: L R
Частота                                  : 44,1 КГц
Частота кадров                           : 43,066 кадра/сек (1024 spf)
Метод сжатия                             : С потерями
Размер потока                            : 2,72 Мбайт (24%)
Default                                  : Да
Alternate group                          : 1

Отключение обновлений

Способ #1 (Подойдет для Windows 10 HOME/ PRO / CORP.)
  • Нажмите сочетание клавиш Win+R;
  • Введите команду services.msc и OK (откроются службы Windows);
  • Находим центр обновлений Windows. Состояние: Отключить. Тип запуска: Отключена;
  • Нажимаем OK.
    Способ #2 (Подойдет только для Windows 10 PRO / CORP.)
  • Нажмите сочетание клавиш Win+R;
  • Введите команду gpedit.msc и OK (Откроется редактор локальной групповой политики);
  • Заходим в конфигурацию компьютера > Административные шаблоны > Компоненты Windows > Центр обновления Windows > вкладка "Стандартный";
  • Находим параметр "Настройка автоматического обновления", устанавливаем "Отключено" > Применить и OK.
    После этого рекомендуется зайти в параметры "Обновление и безопасность" и выполнить проверку обновлений, чтобы те изменения которые были сделаны применились.
Способ #3 (С помощью программы Win Updates Disabler)
Скачать программу можете с официального сайта или отсюда ССЫЛКА.
  • Запускаем программу, выбираем опцию "Отключить обновление Windows", поставив напротив галочку и нажимаем "Применить сейчас", чтобы применить изменения.
    Более подробно Вы узнаете из видео и статьи автора, а также другие дополнительные способы по отключению обновлений Windows.
Скриншоты:

[Цитировать]



Показать сообщения:    

Текущее время: 19-Окт 15:09

Часовой пояс: UTC + 6


Вы не можете начинать темы
Вы не можете отвечать на сообщения
Вы не можете редактировать свои сообщения
Вы не можете удалять свои сообщения
Вы не можете голосовать в опросах
Вы не можете прикреплять файлы к сообщениям
Вы не можете скачивать файлы

!ВНИМАНИЕ!
Сайт не предоставляет электронные версии произведений, а занимается лишь коллекционированием и каталогизацией ссылок, присылаемых и публикуемых на форуме нашими читателями. Если вы являетесь правообладателем какого-либо представленного материала и не желаете, чтобы ссылка на него находилась в нашем каталоге, свяжитесь с нами, и мы незамедлительно удалим ее. Файлы для обмена на трекере предоставлены пользователями сайта, и администрация не несет ответственности за их содержание. Просьба не заливать файлы, защищенные авторскими правами, а также файлы нелегального содержания!