[ Сегодня идет свободное скачивание без начисления Download ]


Статистика раздачи
Нет
 
   
 
Top  
 
 
Даже не думай! / Fugget about it
Сезон 2

Страна: Канада
Жанр: комедия
Продолжительность: ~ 20-21 минута
Год выпуска: 2013
Перевод: Профессиональный (многоголосый, закадровый) /2x2/

Запись: Beer kolesik Drinkers, #Antisnl#

Рип: Faker020285
Русские субтитры: нет
Режиссёр: Ричард Уэстон / Richard Weston
Роли озвучивали: Tony Nappo, Jacqueline Pillon, Chuck Shamata, Emilie-Claire Barlow, Danny Smith, Linda Kash, Ted Atherton
Описание: Бывший гангстер Нью-Йорка Джимми Фальконе переезжает со своей семьей в Канаду по программе защиты свидетелей. Отец семейства намерен начать новую, полную спокойствия и семейного счастья жизнь. Его намерения осложняются хотя бы тем, что все проблемы он привык решать определенным способом.

Список серий:
2х01 The McFrugals
2х02 Mennonites!
2х03 Too Cool for Night School
2х04 The Broadfather (не была показана)
2х05 Royally Screwed
2х06 You Only Try Haggis Once
2х07 From My Cold Limp Hands
2х08 The Fugly American
2х09 The Man from P.I.G.L.E.T.
2х10 Pizza with Extra Cheech
2х11 The Balls on This Room
2х12 Ass-Jax
2х13 Effin' Neighbors, Eh?
Ссылка на предыдущие и альтернативные раздачи:
Семпл: http://www.sendspace.com/file/tym5ik
Качество: SATRip
Формат: AVI
Видео: 720x400 (1.80:1), 25 fps, XviD build 65 ~1499 kbps avg, 0.21 bit/pixel
Аудио RUS: 48 kHz, MPEG Layer 3, 2 ch, ~192.00 kbps avg
Субтитры: Нет

Подробные технические данные

Формат : AVIФормат/Информация : Audio Video InterleaveРазмер файла : 253 МбайтПродолжительность : 20 м.Общий поток : 1701 Кбит/секПрограмма кодирования : VirtualDubMod 1.5.10.3 | www.virtualdub-fr.org || (build 2550/release)Библиотека кодирования : VirtualDubMod build 2550/release
ВидеоИдентификатор : 0Формат : MPEG-4 VisualПрофиль формата : Advanced Simple@L5Параметр BVOP формата : 2Параметр QPel формата : НетПараметр GMC формата : Без точки переходаПараметр матрицы формата : Default (H.263)Идентификатор кодека : XVIDИдентификатор кодека/Подсказка : XviDПродолжительность : 20 м.Битрейт : 1500 Кбит/секШирина : 720 пикселейВысота : 400 пикселейСоотношение сторон : 16:9Частота кадров : 25,000 кадров/секЦветовое пространство : YUVСубдискретизация насыщенности : 4:2:0Битовая глубина : 8 битТип развёртки : ПрогрессивнаяМетод сжатия : С потерямиБит/(Пиксели*Кадры) : 0.208Размер потока : 223 Мбайт (88%)Библиотека кодирования : XviD 65
АудиоИдентификатор : 1Формат : MPEG AudioВерсия формата : Version 1Профиль формата : Layer 3Режим : Joint stereoРасширение режима : MS StereoИдентификатор кодека : 55Идентификатор кодека/Подсказка : MP3Продолжительность : 20 м.Вид битрейта : ПостоянныйБитрейт : 192 Кбит/секКаналы : 2 каналаЧастота : 48,0 КГцМетод сжатия : С потерямиРазмер потока : 28,5 Мбайт (11%)Выравнивание : Соединение по промежуткамПродолжительность промежутка : 40 мс. (1,00 видеокадр)Время предзагрузки промежутка : 504 мс.Библиотека кодирования : LAME3.99rНастройки программы : -m j -V 4 -q 0 -lowpass 18.6 -b 192

Скриншоты





Внимание! Раздача ведётся путём добавления новых серий

Внимание! Раздача ведётся путём добавления новых серий; при каждом добавлении создётся новый торрент. Чтобы начать докачку новой серии, пользователям необходимо сделать следующее:
(1) остановить скачивание,
(2) удалить старый торрент у себя из клиента (старые серии удалять не надо),
(3) скачать новый торрент и запустить его у себя в клиенте вместо старого, при этом указать клиенту путь в старую папку куда и должно происходить скачивание новых серий.
Ваш клиент при этом должен произвести хеширование (проверку) старой папки (если не производит сам - помогите ему сделать это), и будет докачивать только те серии которых у вас ещё нет. Старые серии при этом не удаляются, а продолжают раздаваться!
Eсли вы уже удалили старые серии, то предотвратить повторную закачку старых серий можно, отжав галочку в соответсвующих местах при запуске нового торрента. По возможности, желательно не удалять старые серии как можно дольше чтобы релизёр не столько продолжал раздавать старые серии, а смог сконцентрироваться на новых.

[Цитировать]



Показать сообщения:    

Текущее время: 19-Авг 02:06

Часовой пояс: UTC + 6


Вы не можете начинать темы
Вы не можете отвечать на сообщения
Вы не можете редактировать свои сообщения
Вы не можете удалять свои сообщения
Вы не можете голосовать в опросах
Вы не можете прикреплять файлы к сообщениям
Вы не можете скачивать файлы

!ВНИМАНИЕ!
Сайт не предоставляет электронные версии произведений, а занимается лишь коллекционированием и каталогизацией ссылок, присылаемых и публикуемых на форуме нашими читателями. Если вы являетесь правообладателем какого-либо представленного материала и не желаете, чтобы ссылка на него находилась в нашем каталоге, свяжитесь с нами, и мы незамедлительно удалим ее. Файлы для обмена на трекере предоставлены пользователями сайта, и администрация не несет ответственности за их содержание. Просьба не заливать файлы, защищенные авторскими правами, а также файлы нелегального содержания!