[ Сегодня идет свободное скачивание без начисления Download ]


Статистика раздачи
Нет
 
   
 
 
 
 
Токсичный мститель 3: Последнее искушение Токси / The Toxic Avenger Part III: The Last Temptation of Toxie (1989) BDRip 1080p Название: Токсичный мститель 3: Последнее искушение Токси
Оригинальное название: The Toxic Avenger Part III: The Last Temptation of Toxie
Год выхода: 1989
Страна: США
Студия: Troma Entertainment
Продолжительность: 01:41:49
Жанр: фантастика, боевик, комедия, ужасы, ...
Режиссер: Майкл Херц, Ллойд Кауфман
В ролях: Рон Фазио, Джон Альтамура, Phoebe Legere, Рик Коллинз, Лиза Гайе, Джессика Даблин, Тсутому Секине, Майкл Дж. Каплан, Трэйси Манн, Бонни Гарвин, ...
Перевод: Авторский (одноголосый, закадровый) Володарский Леонид Вениаминович
О фильме: Злодеи корпорации «Апокалипсис» соблазнили нашего «Ядика» работать у них и стать честолюбивым карьеристом. Он, бедняга, даже не догадывается о коварных планах хозяина фирмы, который на поверку оказывается сущим Дьяволом…

Кодек: x264
Качество: BDRip 1080p
Видео: 1920x1036, 14000 kbps, 23,976 fps
Аудио #1: AC-3, 2 ch, 192 kbps (Rus) - AVO Гранкин Евгений
Аудио #2: AC-3, 2 ch, 256 kbps (Eng)
Субтитры: Английские
Спасибо за исходник

Дополнительная информация

За исходник спасибо - Bess80
Есть место без перевода около 1 мин 15 сек.

MediaInfo

x264 [info]: frame I:914 Avg QP:18.72 size:253541
x264 [info]: frame P:29537 Avg QP:21.14 size:103948
x264 [info]: frame B:116021 Avg QP:23.22 size: 63641
x264 [info]: consecutive B-frames: 1.5% 2.3% 6.1% 16.3% 13.7% 45.4% 5.4% 1.3% 3.4% 0.5% 1.3% 2.4% 0.5%
Общее
Уникальный идентификатор : 249004434535840136241179862314415792157 (0xBB54827A1CA085F69B4A34EAE95FA01D)
Полное имя : Токсичный мститель 3 Последнее искушение Токси (The Toxic Avenger) 1989 BDRip 1080p.mkv
Формат : Matroska
Версия формата : Version 2
Размер файла : 10,3 Гбайт
Продолжительность : 1 ч. 41 м.
Общий поток : 14,4 Мбит/сек
Дата кодирования : UTC 2016-04-11 08:04:10
Программа кодирования : mkvmerge v4.0.0 ('The Stars were mine') сборка от Jun 6 2010 16:18:42
Библиотека кодирования : libebml v1.0.0 + libmatroska v1.0.0
Видео
Идентификатор : 1
Формат : AVC
Формат/Информация : Advanced Video Codec
Профиль формата : High@L4.1
Параметр CABAC формата : Да
Параметр ReFrames формата : 4 кадра
Идентификатор кодека : V_MPEG4/ISO/AVC
Продолжительность : 1 ч. 41 м.
Битрейт : 14,0 Мбит/сек
Ширина : 1920 пикселей
Высота : 1036 пикселей
Соотношение сторон : 1,85:1
Режим частоты кадров : Постоянный
Частота кадров : 23,976 кадра/сек
Цветовое пространство : YUV
Субдискретизация насыщенности : 4:2:0
Битовая глубина : 8 бит
Тип развёртки : Прогрессивная
Бит/(Пиксели*Кадры) : 0.294
Размер потока : 9,75 Гбайт (95%)
Библиотека кодирования : x264 core 146 r2538 121396c
Настройки программы : cabac=1 / ref=4 / deblock=1:-3:-3 / analyse=0x3:0x133 / me=umh / subme=11 / psy=1 / psy_rd=1.10:0.16 / mixed_ref=1 / me_range=32 / chroma_me=1 / trellis=2 / 8x8dct=1 / cqm=0 / deadzone=21,11 / fast_pskip=0 / chroma_qp_offset=-3 / threads=12 / lookahead_threads=2 / sliced_threads=0 / nr=0 / decimate=0 / interlaced=0 / bluray_compat=0 / constrained_intra=0 / bframes=12 / b_pyramid=2 / b_adapt=2 / b_bias=0 / direct=3 / weightb=1 / open_gop=0 / weightp=2 / keyint=240 / keyint_min=23 / scenecut=40 / intra_refresh=0 / rc_lookahead=60 / rc=2pass / mbtree=0 / bitrate=14000 / ratetol=1.0 / qcomp=0.60 / qpmin=0 / qpmax=69 / qpstep=4 / cplxblur=20.0 / qblur=0.5 / vbv_maxrate=50000 / vbv_bufsize=62500 / nal_hrd=none / filler=0 / ip_ratio=1.40 / pb_ratio=1.30 / aq=1:0.90
Язык : English
Default : Нет
Forced : Нет
Аудио #1
Идентификатор : 2
Формат : AC-3
Формат/Информация : Audio Coding 3
Расширение режима : CM (complete main)
Параметр Endianness формата : Big
Идентификатор кодека : A_AC3
Продолжительность : 1 ч. 41 м.
Вид битрейта : Постоянный
Битрейт : 192 Кбит/сек
Каналы : 2 канала
Расположение каналов : Front: L R
Частота : 48,0 КГц
Метод сжатия : С потерями
Размер потока : 140 Мбайт (1%)
Заголовок : AVO Гранкин Евгений
Язык : Russian
Default : Нет
Forced : Нет
Аудио #2
Идентификатор : 3
Формат : AC-3
Формат/Информация : Audio Coding 3
Расширение режима : CM (complete main)
Параметр Endianness формата : Big
Идентификатор кодека : A_AC3
Продолжительность : 1 ч. 41 м.
Вид битрейта : Постоянный
Битрейт : 256 Кбит/сек
Каналы : 2 канала
Расположение каналов : Front: L R
Частота : 48,0 КГц
Метод сжатия : С потерями
Размер потока : 186 Мбайт (2%)
Язык : English
Default : Нет
Forced : Нет
Текст
Идентификатор : 4
Формат : UTF-8
Идентификатор кодека : S_TEXT/UTF8
Идентификатор кодека/Информация : UTF-8 Plain Text
Язык : English
Default : Нет
Forced : Нет

Скриншоты


[Цитировать]



Показать сообщения:    

Текущее время: 23-Авг 06:39

Часовой пояс: UTC + 6


Вы не можете начинать темы
Вы не можете отвечать на сообщения
Вы не можете редактировать свои сообщения
Вы не можете удалять свои сообщения
Вы не можете голосовать в опросах
Вы не можете прикреплять файлы к сообщениям
Вы не можете скачивать файлы

!ВНИМАНИЕ!
Сайт не предоставляет электронные версии произведений, а занимается лишь коллекционированием и каталогизацией ссылок, присылаемых и публикуемых на форуме нашими читателями. Если вы являетесь правообладателем какого-либо представленного материала и не желаете, чтобы ссылка на него находилась в нашем каталоге, свяжитесь с нами, и мы незамедлительно удалим ее. Файлы для обмена на трекере предоставлены пользователями сайта, и администрация не несет ответственности за их содержание. Просьба не заливать файлы, защищенные авторскими правами, а также файлы нелегального содержания!